<?xml version="1.0" standalone="no"?>
<!--
Font Awesome Free 5.14.0 by @fontawesome - https://fontawesome.com
License - https://fontawesome.com/license/free (Icons: CC BY 4.0, Fonts: SIL OFL 1.1, Code: MIT License)
-->
<!DOCTYPE svg PUBLIC "-//W3C//DTD SVG 1.1//EN" "http://www.w3.org/Graphics/SVG/1.1/DTD/svg11.dtd" >
<svg xmlns="http://www.w3.org/2000/svg" xmlns:xlink="http://www.w3.org/1999/xlink" version="1.1">
<metadata>
Created by FontForge 20210314 at Wed Jul 15 11:59:41 2021
 By Robert Madole
Copyright (c) Font Awesome
</metadata>
<defs>
<font id="FontAwesome5Free-Solid" horiz-adv-x="512" >
  <font-face 
    font-family="Font Awesome 5 Free Solid"
    font-weight="900"
    font-stretch="normal"
    units-per-em="512"
    panose-1="2 0 5 3 0 0 0 0 0 0"
    ascent="448"
    descent="-64"
    bbox="-1.00195 -64.9795 640.104 448.576"
    underline-thickness="25"
    underline-position="-50"
    unicode-range="U+0020-F8FF"
  />
    <missing-glyph />
    <glyph glyph-name="faucet" unicode="&#xe005;" 
d="M352 192c88.3066 0 160 -71.6934 160 -160c0 -17.6611 -14.3389 -32 -32 -32h-64c-17.6611 0 -32 14.3389 -32 32s-14.3389 32 -32 32h-12.79c-20.5898 -37.7305 -64.21 -64 -115.21 -64s-94.6201 26.2695 -115.21 64h-92.79c-8.83105 0 -16 7.16895 -16 16v96
c0 8.83105 7.16895 16 16 16h118.61c15.71 13.4004 35.46 23 57.3896 28v47.5596l32 3.38086l32 -3.38086v-47.5596c21.9297 -4.92969 41.6797 -14.5596 57.3896 -28h38.6104zM81.5898 288.09c-9.41992 -1 -17.5898 6.81055 -17.5898 16.7998v30.2207
c0 9.98926 8.16992 17.7998 17.5898 16.8096l110.41 -11.6602v27.7402c0 8.83105 7.16895 16 16 16h32c8.83105 0 16 -7.16895 16 -16v-27.7402l110.41 11.6602c9.41992 0.990234 17.5898 -6.80957 17.5898 -16.8096v-30.2207
c0 -9.98926 -8.16992 -17.7998 -17.5898 -16.7998l-142.41 15z" />
    <glyph glyph-name="trailer" unicode="&#xe041;" horiz-adv-x="640" 
d="M624 128c8.83105 0 16 -7.16895 16 -16v-32c0 -8.83105 -7.16895 -16 -16 -16h-337.61c-7.83008 54.21 -54 96 -110.39 96s-102.56 -41.79 -110.39 -96h-49.6104c-8.83105 0 -16 7.16895 -16 16v288c0 8.83105 7.16895 16 16 16h512c8.83105 0 16 -7.16895 16 -16v-240
h80zM96 204.32v107.68c0 4.41504 -3.58496 8 -8 8h-16c-4.41504 0 -8 -3.58496 -8 -8v-128.39c9.85938 8.0166 20.5459 14.9482 32 20.71zM192 222.86v89.1396c0 4.41504 -3.58496 8 -8 8h-16c-4.41504 0 -8 -3.58496 -8 -8v-89.1396
c5.30957 0.489258 10.5703 1.13965 16 1.13965s10.6904 -0.650391 16 -1.13965zM288 183.61v128.39c0 4.41504 -3.58496 8 -8 8h-16c-4.41504 0 -8 -3.58496 -8 -8v-107.68c11.4541 -5.76172 22.1406 -12.6934 32 -20.71zM384 128v184c0 4.41504 -3.58496 8 -8 8h-16
c-4.41504 0 -8 -3.58496 -8 -8v-184h32zM480 128v184c0 4.41504 -3.58496 8 -8 8h-16c-4.41504 0 -8 -3.58496 -8 -8v-184h32zM176 128c44.1533 0 80 -35.8467 80 -80s-35.8467 -80 -80 -80s-80 35.8467 -80 80s35.8467 80 80 80zM176 16c17.6611 0 32 14.3389 32 32
s-14.3389 32 -32 32s-32 -14.3389 -32 -32s14.3389 -32 32 -32z" />
    <glyph glyph-name="bacteria" unicode="&#xe059;" horiz-adv-x="640" 
d="M272.35 221.6c-2.19727 -0.946289 -4.63184 -1.47949 -7.17578 -1.47949h-0.0341797c-0.00292969 0 0.00195312 -0.0146484 -0.00195312 -0.0146484c-7.27051 0 -13.5322 4.35449 -16.3174 10.5947l-3.91992 8.84961
c-1.15039 -0.729492 -2.35059 -1.37988 -3.4707 -2.14941c-3.47168 -2.44629 -6.75293 -5.02832 -9.93945 -7.82031c-4.16406 -3.56152 -8.00098 -7.31543 -11.6504 -11.4004c-2.79688 -3.0166 -5.3916 -6.11719 -7.87012 -9.41016
c-0.700195 -0.969727 -1.22949 -2.0498 -1.89941 -3.0498l8.7998 -4.10938c6.0166 -2.84082 10.1523 -8.94531 10.1523 -16.0361c0 -9.79199 -7.9502 -17.7432 -17.7432 -17.7432c-2.70312 0 -5.26562 0.606445 -7.55957 1.68848l-9 4.2207
c-1.61035 -5.00293 -2.92773 -10.2646 -3.87012 -15.5303c-1.9248 -11.2178 -6.14648 -21.8359 -12.0801 -31.0498l9.14062 -9.37012c3.09082 -3.19824 4.99121 -7.55957 4.99121 -12.3545c0 -9.80859 -7.96387 -17.7715 -17.7725 -17.7715
c-5.01465 0 -9.54688 2.08105 -12.7793 5.42578l-8.58984 8.7998c-13.0752 -8.66602 -28.8223 -13.7949 -45.6494 -13.8799c-1.03027 0 -2.10059 0.259766 -3.10059 0.259766l-2.87012 -11c-2.08008 -7.52637 -8.97949 -13.0732 -17.165 -13.0732
c-9.8291 0 -17.8096 7.98047 -17.8096 17.8105c0 1.44043 0.171875 2.84082 0.495117 4.18359l2.87988 11.0596c-15.5566 7.7666 -28.2236 20.1123 -36.3896 35.4297l-11.2705 -3.33008c-1.60547 -0.477539 -3.30273 -0.741211 -5.06348 -0.741211
c-9.79004 0 -17.7383 7.94824 -17.7383 17.7383c0 8.03027 5.34668 14.8213 12.6719 17.0029l11.5801 3.43066c-0.142578 1.98535 -0.214844 3.83594 -0.214844 5.85742c0 4.47168 0.353516 8.86133 1.03516 13.1426c1.72949 10.3799 4.72949 20.2197 7.51953 30.2197
l-10.3496 3.54004c-6.94824 2.40234 -11.9346 8.99512 -11.9346 16.7549c0 9.78711 7.94629 17.7334 17.7334 17.7334c2.02734 0 3.97559 -0.34082 5.79102 -0.96875l10.4795 -3.58984c6.40332 15.3193 14.1484 30.0723 23 43.9102l-8.87988 6.46973
c-4.4375 3.20996 -7.30176 8.43652 -7.30176 14.3262c0 3.90625 1.27148 7.51855 3.42188 10.4443c3.24805 4.4248 8.49316 7.27441 14.3975 7.27441c3.9209 0 7.54688 -1.26758 10.4922 -3.41406l8.82031 -6.4209c10.6797 12.8564 22.2119 24.5146 34.9502 35.3301
l-6.4502 8.61035c-2.22168 2.95703 -3.5625 6.6377 -3.5625 10.6182c0 5.82617 2.82227 10.998 7.17285 14.2217c2.97461 2.20312 6.66211 3.53027 10.6445 3.53027c5.83789 0 11.0273 -2.80078 14.2949 -7.12988l6.32031 -8.43066
c13.8359 9.05371 28.5869 16.9834 43.9404 23.5703l-3.49023 9.7998c-0.658203 1.8584 -1.02734 3.86816 -1.02734 5.95117c0 9.8252 7.97656 17.8018 17.8018 17.8018c7.74316 0 14.3379 -4.9541 16.7852 -11.8623l3.37988 -9.45996
c10.9004 3.16992 21.7305 6.38965 33.1104 8.21973c4.51367 0.758789 9.02637 1.15234 13.7539 1.15234c1 0 1.99512 -0.0175781 2.98633 -0.0527344l2.81934 10.7803c1.98633 7.66504 8.95117 13.3457 17.2334 13.3457c9.82617 0 17.8047 -7.97754 17.8047 -17.8037
c0 -1.54395 -0.197266 -3.04297 -0.567383 -4.47168l-2.83984 -10.8506c15.5527 -7.83105 28.2119 -20.2178 36.3799 -35.5693l11.3398 3.35938c1.6084 0.480469 3.30957 0.745117 5.07324 0.745117c9.79199 0 17.7412 -7.9502 17.7412 -17.7412
c0 -8.02832 -5.34375 -14.8184 -12.665 -17.0039l-11.8496 -3.50977c0.120117 -1.82227 0.125977 -3.67969 0.125977 -5.53223c0 -15.5859 -4.2998 -30.1758 -11.7764 -42.6475l9.7207 -8.76074c3.56934 -3.25 5.79688 -7.92969 5.79688 -13.1328
c0 -9.80469 -7.95996 -17.7646 -17.7637 -17.7646c-4.60156 0 -8.79688 1.75391 -11.9531 4.62793l-10 9c-9.85547 -6.88477 -21.4219 -11.7422 -33.75 -13.8398c-4.16895 -0.80957 -8.35547 -1.85547 -12.3604 -3.08008l4 -9.08008
c0.96875 -2.18848 1.5293 -4.61426 1.5293 -7.16016c0 -7.26172 -4.37988 -13.5078 -10.6396 -16.2402zM128 192c17.6611 0 32 14.3389 32 32s-14.3389 32 -32 32s-32 -14.3389 -32 -32s14.3389 -32 32 -32zM208 288c8.83105 0 16 7.16895 16 16s-7.16895 16 -16 16
s-16 -7.16895 -16 -16s7.16895 -16 16 -16zM639.26 242.7c0.470703 -1.59277 0.724609 -3.27344 0.724609 -5.01758c0 -8.04492 -5.37891 -14.8438 -12.7344 -16.9922l-11.5801 -3.43066c0.143555 -1.99512 0.216797 -3.85547 0.216797 -5.88672
c0 -4.47852 -0.354492 -8.875 -1.03711 -13.1631c-1.72949 -10.3701 -4.72949 -20.21 -7.51953 -30.21l10.3398 -3.53027c6.94824 -2.40234 11.9346 -8.99414 11.9346 -16.7549c0 -9.78711 -7.94629 -17.7334 -17.7344 -17.7334
c-2.02637 0 -3.97559 0.34082 -5.79004 0.96875l-10.4805 3.58984c-6.40527 -15.3213 -14.1494 -30.0781 -23 -43.9199l8.88086 -6.45996c4.6377 -3.20605 7.64746 -8.54297 7.64746 -14.6025c0 -9.80176 -7.95801 -17.7598 -17.7598 -17.7598
c-4.10156 0 -7.87988 1.39355 -10.8877 3.73242l-8.82031 6.41992c-10.6826 -12.8574 -22.2148 -24.5176 -34.9502 -35.3398l6.4502 -8.61035c2.23926 -2.96094 3.5918 -6.6543 3.5918 -10.6494c0 -5.84082 -2.83984 -11.0225 -7.21191 -14.2402
c-2.97363 -2.20508 -6.66016 -3.53418 -10.6426 -3.53418c-5.83594 0 -11.0234 2.80273 -14.2871 7.13379l-6.32031 8.42969c-13.8379 -9.05273 -28.5889 -16.9854 -43.9404 -23.5801l3.49023 -9.79004c0.658203 -1.85742 1.02734 -3.86816 1.02734 -5.9502
c0 -9.8252 -7.97656 -17.8018 -17.8018 -17.8018c-7.74316 0 -14.3379 4.9541 -16.7852 11.8623l-3.37988 9.45996c-10.8604 -3.16992 -21.7305 -6.34961 -33.1006 -8.24023c-4.51465 -0.757812 -9.02832 -1.15234 -13.7568 -1.15234
c-0.999023 0 -1.99316 0.0175781 -2.9834 0.0527344l-2.81934 -10.7803c-1.98633 -7.66504 -8.95117 -13.3457 -17.2334 -13.3457c-9.82617 0 -17.8037 7.97754 -17.8037 17.8047c0 1.54395 0.196289 3.04199 0.566406 4.47168l2.84082 10.8496
c-15.5664 7.8291 -28.2363 20.2207 -36.4102 35.5801l-11.3398 -3.36035c-1.61035 -0.480469 -3.31348 -0.746094 -5.0791 -0.746094c-9.79199 0 -17.7422 7.9502 -17.7422 17.7432c0 8.02734 5.3418 14.8164 12.6611 17.0029l11.8594 3.51074
c-0.119141 1.82227 -0.125 3.67871 -0.125 5.53125c0 15.5869 4.29883 30.1768 11.7754 42.6484l-9.71973 8.75c-3.68848 3.25684 -6.00293 8.0166 -6.00293 13.3193c0 9.80762 7.96289 17.7705 17.7705 17.7705c4.69824 0 8.97363 -1.82812 12.1523 -4.80957l10 -9
c9.85645 6.9082 21.4297 11.7861 33.7695 13.8994c4.1709 0.804688 8.35742 1.85156 12.3604 3.08008l-4 9.08008c-0.962891 2.18262 -1.51953 4.60156 -1.51953 7.13867c0 7.25391 4.37012 13.4951 10.6191 16.2314c2.19824 0.954102 4.63477 1.49414 7.18066 1.5
c0.00390625 0 -0.00195312 0.0146484 0.00195312 0.0146484c7.27051 0 13.5322 -4.35449 16.3174 -10.5947l3.91992 -8.84961c1.15039 0.729492 2.35059 1.37988 3.4707 2.14941c3.49023 2.4502 6.79199 5.03613 10 7.83008c4.13867 3.53516 7.94922 7.2666 11.5693 11.3301
c2.82617 3.03223 5.44336 6.15332 7.94043 9.46973c0.69043 0.970703 1.21973 2.0498 1.88965 3.0498l-8.7998 4.11035c-6.0166 2.84082 -10.1523 8.94531 -10.1523 16.0352c0 9.79297 7.9502 17.7432 17.7432 17.7432c2.70312 0 5.26562 -0.605469 7.55957 -1.68848
l9 -4.21973c1.60938 4.99902 2.92676 10.2578 3.87012 15.5195c1.91992 11.2236 6.14258 21.8457 12.0801 31.0605l-9.14062 9.37012c-3.09082 3.19824 -4.99121 7.55957 -4.99121 12.3535c0 9.80957 7.96387 17.7725 17.7725 17.7725
c5.01465 0 9.54688 -2.08105 12.7793 -5.42578l8.58984 -8.81055c13.0723 8.67285 28.8203 13.8066 45.6494 13.8906c1.03027 0 2.10059 -0.260742 3.10059 -0.260742l2.87012 11c2.10059 7.49609 8.98438 13.0137 17.1475 13.0137
c9.83008 0 17.8105 -7.98047 17.8105 -17.8096c0 -1.41602 -0.166016 -2.79297 -0.478516 -4.11426l-2.87988 -11.0596c15.5527 -7.77246 28.2188 -20.1162 36.3896 -35.4297l11.2705 3.33008c1.59766 0.478516 3.28906 0.739258 5.04199 0.739258h0.0380859
c0.00585938 0 0.0078125 -0.000976562 0.0136719 -0.000976562c8.0459 0 14.8506 -5.35254 17.0459 -12.6885zM416 32c17.6611 0 32 14.3389 32 32s-14.3389 32 -32 32s-32 -14.3389 -32 -32s14.3389 -32 32 -32z" />
    <glyph glyph-name="bacterium" unicode="&#xe05a;" 
d="M511 345.07c0.634766 -2.13379 0.976562 -4.3877 0.976562 -6.72656c0 -10.7275 -7.1709 -19.7949 -16.9766 -22.6641l-15.79 -4.67969c0.15625 -2.4082 0.163086 -4.86133 0.163086 -7.30859c0 -20.8174 -5.75195 -40.3027 -15.7529 -56.9512l12.9395 -11.6699
c5.1709 -4.34766 8.44043 -10.8584 8.44043 -18.1357c0 -13.0742 -10.6152 -23.6895 -23.6895 -23.6895c-6.47754 0 -12.3525 2.60547 -16.6309 6.8252l-13.3301 12c-13.1318 -9.21387 -28.5537 -15.7207 -45 -18.54c-5.5625 -1.07129 -11.1484 -2.46484 -16.4893 -4.10059
l5.35938 -12.1094c1.2793 -2.91602 2.0127 -6.17285 2.0127 -9.55859c0 -13.1035 -10.6377 -23.7412 -23.7412 -23.7412c-9.7168 0 -18.0791 5.85156 -21.751 14.2197l-5.23047 11.7998c-1.5293 -0.980469 -3.12988 -1.87012 -4.62988 -2.87012
c-4.61719 -3.25684 -8.98438 -6.69043 -13.2295 -10.4004c-5.58008 -4.76562 -10.7148 -9.79785 -15.5908 -15.2793c-3.71875 -4.00195 -7.16699 -8.11914 -10.46 -12.4902c-0.929688 -1.29004 -1.62988 -2.74023 -2.51953 -4.05957l11.7197 -5.49023
c8.20801 -3.71484 13.8818 -11.9531 13.8818 -21.542c0 -13.0576 -10.6016 -23.6592 -23.6602 -23.6592c-3.73535 0 -7.26855 0.867188 -10.4111 2.41113l-12 5.63965c-2.14844 -6.6709 -3.90527 -13.6875 -5.16016 -20.71
c-2.5625 -14.959 -8.19336 -29.1182 -16.1104 -41.3994l12.1904 -12.5c3.92383 -4.22949 6.32129 -9.90332 6.32129 -16.1221c0 -13.0801 -10.6201 -23.7002 -23.7002 -23.7002c-6.5127 0 -12.416 2.63379 -16.7012 6.8916l-11.4502 11.7402
c-17.4336 -11.5586 -38.4326 -18.4014 -60.8701 -18.5195c-1.36035 0 -2.75977 0.299805 -4.12988 0.349609l-3.80957 -14.6299c-2.67383 -10.1768 -11.9395 -17.7002 -22.9502 -17.7002h-0.0498047c-2.07324 0.00292969 -4.07715 0.264648 -6 0.75
c-10.1992 2.62988 -17.751 11.8857 -17.751 22.9014c0 2.04688 0.260742 4.03418 0.750977 5.92871l3.84961 14.75c-20.7412 10.3623 -37.6318 26.8203 -48.5303 47.2402l-15 -4.44043c-2.14062 -0.638672 -4.40527 -0.989258 -6.75293 -0.989258
c-13.0479 0 -23.6406 10.5928 -23.6406 23.6406c0 10.6992 7.12402 19.749 16.8838 22.6592l15.4404 4.55957c-0.199219 2.7207 -0.300781 5.25781 -0.300781 8.0293c0 5.89355 0.458008 11.6826 1.34082 17.3311c2.37012 13.6738 5.52832 27.3877 9.2998 40.5293
l-13 4.48047c-9.47656 3.08398 -16.3213 11.9814 -16.3213 22.4805c0 13.0527 10.5967 23.6504 23.6494 23.6504c2.86035 0 5.60254 -0.508789 8.1416 -1.44141l12.9297 -4.42969c8.61523 20.5029 19.0254 40.2393 30.9199 58.75l-11.0898 8.06055
c-6.20508 4.27051 -10.2344 11.3994 -10.2344 19.4951c0 13.0693 10.6104 23.6797 23.6797 23.6797c5.48535 0 10.5381 -1.86914 14.5547 -5.00488l11 -8c14.2725 17.249 29.6816 32.9014 46.7002 47.4395l-8 10.6299c-2.9541 3.9375 -4.7373 8.83691 -4.7373 14.1338
c0 7.7666 3.76465 14.6611 9.56738 18.9561c3.96484 2.93848 8.87988 4.70801 14.1885 4.70801c7.78125 0 14.6973 -3.73438 19.0518 -9.50781l8 -10.6299c18.4736 12.2129 38.1689 22.917 58.6895 31.8301l-4.2998 12.0498
c-0.799805 2.37695 -1.24805 4.93555 -1.24805 7.58105c0 13.1025 10.6377 23.7402 23.7402 23.7402c10.1953 0 18.8975 -6.44043 22.2578 -15.4707l4.2998 -12c14.3408 4.27246 29.3477 7.81055 44.3301 10.4102c6.0459 1.01172 12.0889 1.53711 18.4199 1.53711
c1.30859 0 2.6123 -0.0224609 3.91016 -0.0673828l3.75977 14.3701c2.64941 10.2295 11.9443 17.8125 22.998 17.8125c13.1123 0 23.7588 -10.6465 23.7588 -23.7588c0 -2.05957 -0.262695 -4.05762 -0.756836 -5.96387l-3.79004 -14.4697
c20.7402 -10.4336 37.6182 -26.9492 48.5 -47.4209l15.1201 4.48047c2.14844 0.639648 4.41797 0.985352 6.77246 0.985352c10.7344 0 19.8164 -7.13379 22.7578 -16.915zM160 80c26.4922 0 48 21.5078 48 48s-21.5078 48 -48 48s-48 -21.5078 -48 -48s21.5078 -48 48 -48z
M240 216c13.2461 0 24 10.7539 24 24s-10.7539 24 -24 24s-24 -10.7539 -24 -24s10.7539 -24 24 -24z" />
    <glyph glyph-name="box-tissue" unicode="&#xe05b;" 
d="M383.88 160.18h-256l-64 288h141.4c30.9912 -0.00195312 57.3018 -20.1162 66.5996 -48c9.29492 -27.8818 35.6016 -47.9961 66.5898 -48h109.41zM-0.120117 -31.8203v64h512v-64c0 -17.6611 -14.3389 -32 -32 -32h-448c-17.6611 0 -32 14.3389 -32 32zM479.88 224.18
c17.6562 -0.00488281 31.9902 -14.3418 31.9902 -32v-128h-512v128c0 17.6611 14.3389 32 32 32h49l14.2197 -64h-15.21c-8.83008 0 -16 -7.16895 -16 -16c0 -8.83008 7.16992 -16 16 -16h352c8.83105 0 16 7.16992 16 16c0 8.83105 -7.16895 16 -16 16h-14.2695l21.3301 64
h40.9395z" />
    <glyph glyph-name="hand-holding-medical" unicode="&#xe05c;" horiz-adv-x="576" 
d="M159.88 272.18c-8.83008 0 -16 7.16992 -16 16v64c0 8.83105 7.16992 16 16 16h64v64c0 8.83105 7.16992 16 16 16h64c8.83105 0 16 -7.16895 16 -16v-64h64c8.83105 0 16 -7.16895 16 -16v-64c0 -8.83008 -7.16895 -16 -16 -16h-64v-64c0 -8.83008 -7.16895 -16 -16 -16
h-64c-8.83008 0 -16 7.16992 -16 16v64h-64zM568.07 111.87c4.87109 -6.62695 7.80469 -14.8232 7.80469 -23.6709c0 -13.1982 -6.40527 -24.9121 -16.2754 -32.1992l-135.029 -99.5703c-17.2783 -12.6621 -38.6699 -20.2148 -61.7002 -20.2695h-347
c-8.80273 0.0595703 -15.9404 7.19727 -16 16v96c0.0595703 8.80273 7.19727 15.9395 16 16h55.3604l46.5 37.7402c20.2246 16.3867 46.0615 26.25 74.0947 26.25h0.0244141h160c17.6943 0 32.0654 -14.3359 32.0654 -32.0303
c0 -1.82324 -0.152344 -3.61035 -0.445312 -5.35059c-2.62012 -15.7393 -17.3701 -26.6094 -33.3701 -26.6094h-78.2393c-8.83105 0 -16 -7.16992 -16 -16c0 -8.83105 7.16895 -16 16 -16h120.609l119.67 88.1797c6.63281 4.91016 14.8516 7.87012 23.7295 7.87012
c13.2129 0 24.9355 -6.43555 32.2012 -16.3398z" />
    <glyph glyph-name="hand-sparkles" unicode="&#xe05d;" horiz-adv-x="640" 
d="M106.66 277.36l-20.7402 -49.6201c-1.08691 -2.19531 -3.34277 -3.70703 -5.95605 -3.70703s-4.87695 1.51172 -5.96387 3.70703l-20.6602 49.6602h-0.0703125l-49.5898 20.5996c-2.10938 1.20508 -3.55469 3.42969 -3.67969 6v0
c0.124023 2.57617 1.5791 4.80371 3.7002 6l49.6299 20.6904h0.0498047l20.7002 49.6299c1.0918 2.18848 3.3457 3.69434 5.95605 3.69434s4.87207 -1.50586 5.96387 -3.69434l20.6602 -49.6406h0.0703125l49.5693 -20.6699c2.11328 -1.2002 3.56055 -3.42676 3.68066 -6v0
c-0.125977 -2.57031 -1.57129 -4.79492 -3.68066 -6l-49.5498 -20.6494h-0.0898438zM471.38 -19.4102l37.4902 -15.6299l0.0703125 -0.169922c-7.59082 -17.0596 -24 -28.79 -43.2402 -28.79h-197.61c-15.9482 0.0273438 -30.0625 7.79492 -38.79 19.79l-125.6 172.61
c-4.80469 6.60156 -7.68066 14.7979 -7.68066 23.5801c0 22.085 17.9297 40.0156 40.0146 40.0156c13.3027 0 25.0986 -6.50586 32.376 -16.5059l23.5898 -32.4902v241c0 17.6611 14.3389 32 32 32s32 -14.3389 32 -32v-152c0 -4.41504 3.58496 -8 8 -8h16
c4.41504 0 8 3.58496 8 8v184c0 17.6611 14.3389 32 32 32s32 -14.3389 32 -32v-184c0 -4.41504 3.58496 -8 8 -8h16c4.41504 0 8 3.58496 8 8v152c0 17.6611 14.3389 32 32 32s32 -14.3389 32 -32v-152c0 -4.41504 3.58496 -8 8 -8h16c4.41504 0 8 3.58496 8 8v72
c0 17.6611 14.3389 32 32 32s32 -14.3389 32 -32v-176.03c-0.0195312 -1.30957 -0.269531 -2.66992 -0.269531 -4c-7.77051 -3.70996 -14.5 -9.59961 -18.3506 -17.3398l-0.469727 -0.950195l-0.410156 -1l-15.6299 -37.4795l-37.4902 -15.6299l-1 -0.430664l-1 -0.489258
c-12.6719 -6.35254 -21.3789 -19.4189 -21.3789 -34.5479s8.70703 -28.2402 21.3789 -34.5928l1 -0.5zM349.79 108.48c1.31543 0.655273 2.21973 2.00879 2.21973 3.57715s-0.904297 2.92676 -2.21973 3.58203l-29.79 12.4199l-12.4297 29.7803
c-0.657227 1.30957 -2.00879 2.20996 -3.57324 2.20996c-1.56348 0 -2.91992 -0.900391 -3.57715 -2.20996l-12.4199 -29.7803l-29.79 -12.4199c-1.31543 -0.655273 -2.21973 -2.00879 -2.21973 -3.57715s0.904297 -2.92676 2.21973 -3.58203l29.79 -12.4102
l12.4297 -29.7803c0.657227 -1.30957 2.00879 -2.20996 3.57324 -2.20996c1.56348 0 2.91992 0.900391 3.57715 2.20996l12.4199 29.7803zM640 16.0898l-0.0703125 -0.0703125v0c-0.135742 -2.55078 -1.58008 -4.75684 -3.67969 -5.94922l-49.5498 -20.6602h-0.0898438v0
l-20.6904 -49.6201c-1.08691 -2.19531 -3.34277 -3.70703 -5.95605 -3.70703s-4.87695 1.51172 -5.96387 3.70703l-20.6602 49.5898h-0.0703125l-49.5693 20.6699c-2.10059 1.19238 -3.54395 3.39844 -3.68066 5.9502v0c0.118164 2.57324 1.56641 4.80078 3.68066 6
l49.6299 20.7402h0.0498047l20.7002 49.6299c1.0918 2.18848 3.3457 3.69434 5.95605 3.69434s4.87207 -1.50586 5.96387 -3.69434l20.6797 -49.6104h0.0703125l49.5703 -20.6699c2.11328 -1.19922 3.5625 -3.42676 3.67969 -6z" />
    <glyph glyph-name="hands-wash" unicode="&#xe05e;" horiz-adv-x="576" 
d="M496 224c-26.4922 0 -48 21.5078 -48 48s21.5078 48 48 48s48 -21.5078 48 -48s-21.5078 -48 -48 -48zM311.47 269.55l-16.0801 -4.96973l20.9004 66.1699c3.5 11.0703 14.1797 18.8604 25.71 17.5098c12.0508 -1.27246 21.4727 -11.4824 21.4727 -23.8682
c0 -2.53418 -0.393555 -4.97754 -1.12305 -7.27148l-15.3496 -48.6104c-5.91699 2.19336 -12.3369 3.43457 -19 3.49023c-0.0107422 0 -0.0185547 -0.0107422 -0.0302734 -0.0107422c-5.7373 0 -11.2773 -0.853516 -16.5 -2.43945zM93.6504 61.6699
c-36.4326 21.1162 -60.9873 60.2432 -61.6504 105.19v112.729c0.179688 13.3203 11.6699 23.9102 24.9004 23.8604c13.1807 -0.0771484 23.8604 -10.7988 23.8604 -23.9971c0 -0.0507812 0 -0.102539 -0.000976562 -0.15332l2.06055 -50.0498l60 189.85
c3.5 11.0703 14.1797 18.9004 25.71 17.46c12.0371 -1.28613 21.4443 -11.4883 21.4443 -23.8652c0 -2.52441 -0.390625 -4.95801 -1.11426 -7.24414l-38.5605 -122c-0.240234 -0.760742 -0.373047 -1.57129 -0.373047 -2.41016
c0 -4.41699 3.58496 -8.00195 8.00195 -8.00195c3.57617 0 6.60742 2.35156 7.63086 5.5918l47.9307 151.71c3.50977 11.0605 14.1797 18.8506 25.71 17.5098c12.0371 -1.28613 21.4443 -11.4883 21.4443 -23.8652c0 -2.52441 -0.390625 -4.95801 -1.11426 -7.24414
l-43.3701 -137.79c-0.241211 -0.762695 -0.375 -1.57422 -0.375 -2.41602c0 -4.41699 3.58594 -8.00293 8.00293 -8.00293c3.57617 0 6.60645 2.35059 7.63184 5.58887l33.4502 106.42c3.5 11.0703 14.1895 18.8604 25.7197 17.5195
c12.0371 -1.28613 21.4443 -11.4883 21.4443 -23.8652c0 -2.52441 -0.390625 -4.95801 -1.11426 -7.24414l-34.1602 -108.12l-73.7002 -22.7598c-62.1299 -20.5283 -107.005 -79.04 -107.06 -148v-25.6904c-0.80957 -0.169922 -1.5498 -0.519531 -2.34961 -0.709961z
M519.1 112c11.6104 0 22.25 -7.83984 24.4404 -19.2402c0.3125 -1.54395 0.477539 -3.12402 0.477539 -4.75977c0 -13.2461 -10.7549 -24 -24 -24h-0.0175781h-160c-4.41504 0 -8 -3.58496 -8 -8s3.58496 -8 8 -8h127.1c11.6104 0 22.25 -7.83984 24.4404 -19.2402
c0.3125 -1.54395 0.477539 -3.12402 0.477539 -4.75977c0 -13.2461 -10.7549 -24 -24 -24h-0.0175781h-128c-4.41504 0 -8 -3.58496 -8 -8s3.58496 -8 8 -8h95.0996c11.6104 0 22.25 -7.83984 24.4404 -19.2402c0.3125 -1.54395 0.477539 -3.12402 0.477539 -4.75977
c0 -13.2461 -10.7549 -24 -24 -24h-0.0175781h-208c-22.6738 0.0859375 -43.9951 6.60645 -62 17.7197c3.8623 9.36328 5.9668 19.6699 5.9668 30.4199c0 38.6191 -27.499 70.8652 -63.9668 78.21v25.6504c0 54.8691 35.7324 101.431 85.1904 117.69l107.72 33.25
c2.24121 0.692383 4.62207 1.0752 7.08984 1.0752c13.252 0 24.0107 -10.7588 24.0107 -24.0107c0 -10.7842 -7.125 -19.917 -16.9209 -22.9453l-47.0898 -17.0596h199.1c11.6104 0 22.25 -7.83984 24.4404 -19.2402c0.3125 -1.54395 0.477539 -3.12402 0.477539 -4.75977
c0 -13.2461 -10.7549 -24 -24 -24h-0.0175781h-128c-4.41504 0 -8 -3.58496 -8 -8s3.58496 -8 8 -8h159.1zM416 384c-17.6611 0 -32 14.3389 -32 32s14.3389 32 32 32s32 -14.3389 32 -32s-14.3389 -32 -32 -32zM112 32c26.4922 0 48 -21.5078 48 -48s-21.5078 -48 -48 -48
s-48 21.5078 -48 48s21.5078 48 48 48z" />
    <glyph glyph-name="handshake-alt-slash" unicode="&#xe05f;" horiz-adv-x="640" 
d="M358.59 252.4l26.1104 23.8896c3.19727 2.92676 5.19238 7.13086 5.19238 11.8037c0 8.83203 -7.1709 16.0029 -16.0039 16.0029c-4.16016 0 -7.95117 -1.59082 -10.7988 -4.19629l-27 -24.7002l-32.6895 -29.9199l330.43 -255.38
c3.76562 -2.92871 6.1709 -7.50781 6.1709 -12.6426c0 -3.69434 -1.25488 -7.09863 -3.36133 -9.80762l-19.6396 -25.2705c-2.92871 -3.76855 -7.50879 -6.17578 -12.6465 -6.17578c-3.69727 0 -7.10254 1.25684 -9.81348 3.36621l-588.35 454.72
c-3.76562 2.92871 -6.17188 7.50781 -6.17188 12.6426c0 3.69434 1.25488 7.09766 3.36133 9.80762l19.6201 25.2695c2.92773 3.77148 7.51074 6.18164 12.6504 6.18164c3.69922 0 7.1084 -1.25879 9.81934 -3.37109l116.891 -90.3301l20.3398 20.2998
c5.78027 5.7998 13.7764 9.39258 22.5996 9.41016h83.79l-75.5996 -69.2402l25.6895 -19.8496l88.1201 80.6797c5.69238 5.21777 13.2881 8.40723 21.6104 8.41016h85.8896c8.82812 -0.0146484 16.8271 -3.60742 22.6104 -9.41016l54.5898 -54.5898h112
c8.7998 0 15.9502 -7.12109 16 -15.9102v-191.8c-0.0273438 -8.81836 -7.18164 -15.9727 -16 -16h-97.5898c-2.7002 15.1729 -10.7646 28.5215 -22.21 37.9102zM16 320h7.55957l382.44 -295.59l-8.7998 -10.8203c-6.81543 -8.38672 -17.2246 -13.7119 -28.8633 -13.7119
c-8.87793 0 -17.0322 3.12012 -23.4268 8.32227l-17.9102 15.5l-0.200195 -0.200195c-11.7383 -14.4346 -29.6592 -23.5977 -49.6963 -23.5977c-15.2695 0 -29.2969 5.35938 -40.3037 14.2979l-90.5 81.8896h-130.3c-8.83105 0 -16 7.16992 -16 16v191.91
c0.0273438 8.81836 7.18164 15.9727 16 16z" />
    <glyph glyph-name="handshake-slash" unicode="&#xe060;" horiz-adv-x="640" 
d="M0 319.79h23.8301l72.1699 -55.79v-168c0 -17.6611 -14.3389 -32 -32 -32h-64v255.79zM48 127.9c-8.83105 0 -16 -7.16992 -16 -16c0 -8.83105 7.16895 -16 16 -16s16 7.16895 16 16c0 8.83008 -7.16895 16 -16 16zM128 96.0898v143.19l278 -214.87l-8.7998 -10.8203
c-6.81543 -8.38672 -17.2246 -13.7119 -28.8633 -13.7119c-8.87793 0 -17.0322 3.12012 -23.4268 8.32227l-17.9102 15.5l-0.200195 -0.200195c-11.7383 -14.4346 -29.6592 -23.5977 -49.6963 -23.5977c-15.2695 0 -29.2969 5.35938 -40.3037 14.2979l-90.5 81.8896
h-18.2998zM544 319.79h96v-255.89h-64c-17.6611 0 -32 14.3379 -32 32v223.89zM592 95.9004c8.83105 0 16 7.16895 16 16c0 8.83008 -7.16895 16 -16 16s-16 -7.16992 -16 -16c0 -8.83105 7.16895 -16 16 -16zM303.33 245.33l330.5 -255.43
c3.76953 -2.92871 6.17676 -7.50977 6.17676 -12.6475c0 -3.69238 -1.25293 -7.09375 -3.35645 -9.80273l-19.6504 -25.2705c-2.92773 -3.77051 -7.51074 -6.18066 -12.6504 -6.18066c-3.69922 0 -7.1084 1.25879 -9.81934 3.37109l-588.34 454.72
c-3.76562 2.92871 -6.17188 7.50781 -6.17188 12.6426c0 3.69434 1.25488 7.09766 3.36133 9.80762l19.6201 25.2695c2.92773 3.77148 7.51074 6.18164 12.6504 6.18164c3.69922 0 7.1084 -1.25879 9.81934 -3.37109l116.891 -90.3398l20.3398 20.3096
c5.78027 5.7998 13.7764 9.39258 22.5996 9.41016h83.79l-75.5996 -69.2402l25.6396 -19.8096l88.0703 80.6396c5.68457 5.21973 13.2764 8.41016 21.5947 8.41016h0.00488281h85.9004c0.0117188 0 0.0263672 0.00488281 0.0380859 0.00488281
c8.82031 0 16.8047 -3.60254 22.5615 -9.41504l54.6104 -54.5898v-193.5c-2.45605 2.78125 -5.0625 5.31934 -7.91016 7.7002l-145.59 118.2l26.0898 23.8896c3.05762 2.91504 4.95215 7.02441 4.95215 11.5781c0 8.83105 -7.16895 16 -16 16
c-4.03613 0 -7.72559 -1.49805 -10.542 -3.96777z" />
    <glyph glyph-name="head-side-cough" unicode="&#xe061;" horiz-adv-x="640" 
d="M616 144c-13.2461 0 -24 10.7539 -24 24s10.7539 24 24 24s24 -10.7539 24 -24s-10.7539 -24 -24 -24zM552 32c13.2461 0 24 -10.7539 24 -24s-10.7539 -24 -24 -24s-24 10.7539 -24 24s10.7539 24 24 24zM488 88c13.2461 0 24 -10.7539 24 -24s-10.7539 -24 -24 -24
s-24 10.7539 -24 24s10.7539 24 24 24zM616 -16c13.2461 0 24 -10.7539 24 -24s-10.7539 -24 -24 -24s-24 10.7539 -24 24s10.7539 24 24 24zM616 88c13.2461 0 24 -10.7539 24 -24s-10.7539 -24 -24 -24s-24 10.7539 -24 24s10.7539 24 24 24zM552 128
c13.2461 0 24 -10.7539 24 -24s-10.7539 -24 -24 -24s-24 10.7539 -24 24s10.7539 24 24 24zM477.22 173c1.76367 -3.9668 2.75977 -8.38281 2.75977 -13c0 -17.6543 -14.3281 -31.9883 -31.9795 -32h-32v-32h-96c-17.6611 0 -32 -14.3389 -32 -32s14.3389 -32 32 -32h96
c0 -35.3223 -28.6777 -64 -64 -64h-64v-32h-224v177.12c-39.25 35.2598 -64 86.1299 -64 142.88c0 106 86 192 192 192h42.0996c70.2783 -0.046875 132.342 -34.8047 170 -88.25c24.6201 -35 52.1201 -139.63 73.1201 -186.75zM288 224
c17.6436 0.0380859 31.9619 14.3564 32 32c0 17.6611 -14.3389 32 -32 32s-32 -14.3389 -32 -32s14.3389 -32 32 -32z" />
    <glyph glyph-name="head-side-cough-slash" unicode="&#xe062;" horiz-adv-x="640" 
d="M454.11 128.79l179.72 -138.89c3.76562 -2.92871 6.1709 -7.50781 6.1709 -12.6426c0 -3.69434 -1.25488 -7.09863 -3.36133 -9.80762l-19.6396 -25.2705c-2.92773 -3.77051 -7.51074 -6.18066 -12.6504 -6.18066c-3.69922 0 -7.1084 1.25879 -9.81934 3.37109
l-588.351 454.72c-3.76562 2.92871 -6.1709 7.50781 -6.1709 12.6426c0 3.69434 1.25488 7.09766 3.36133 9.80762l19.6299 25.2695c2.92871 3.76855 7.50879 6.17676 12.6465 6.17676c3.69727 0 7.10254 -1.25684 9.81348 -3.36621l38.7197 -29.9199
c30.6045 20.9385 67.7969 33.2998 107.644 33.2998h0.176758h42.0996c70.2783 -0.046875 132.342 -34.8047 170 -88.25c24.6201 -35 52.1201 -139.63 73.1201 -186.75c8.51074 -19.21 -3.5498 -40.4004 -23.1094 -44.21zM313.39 237.55
c3.85059 5.28027 6.61035 11.4502 6.58008 18.4502c-0.0332031 17.6455 -14.3535 31.9668 -32 32c-9.92969 0 -18.4795 -4.86035 -24.3594 -12zM616 144c-13.2461 0 -24 10.7539 -24 24s10.7539 24 24 24s24 -10.7539 24 -24s-10.7539 -24 -24 -24zM552 80
c-13.2461 0 -24 10.7539 -24 24s10.7539 24 24 24s24 -10.7539 24 -24s-10.7539 -24 -24 -24zM288 64c0 -17.6611 14.3389 -32 32 -32h96c0 -35.3223 -28.6777 -64 -64 -64h-64v-32h-224v177.12c-39.25 35.2598 -64 86.1299 -64 142.88
c0.015625 31.0195 7.56055 60.5098 20.7305 86.4102l318.81 -246.41h-19.54c-17.6611 0 -32 -14.3389 -32 -32zM616 88c13.2461 0 24 -10.7539 24 -24s-10.7539 -24 -24 -24s-24 10.7539 -24 24s10.7539 24 24 24z" />
    <glyph glyph-name="head-side-mask" unicode="&#xe063;" 
d="M0.150391 263.58c0.445312 9.60547 1.64062 19.0078 3.51953 28.1699l220.33 -160.26v-195.49h-160v177.12c-41 36.8203 -66.1699 90.6699 -63.8496 150.46zM509.22 173c1.62891 -3.79102 2.54688 -7.97949 2.54688 -12.3652
c0 -0.211914 -0.00195312 -0.423828 -0.00683594 -0.634766h-272.55l-225.96 164.35c29.2305 73.0801 103.75 123.65 186.75 123.65h66.1104c70.2744 -0.046875 132.336 -34.8047 169.989 -88.25c24.6201 -35 52.1201 -139.63 73.1201 -186.75zM320 224
c17.6436 0.0380859 31.9619 14.3564 32 32c0 17.6611 -14.3389 32 -32 32s-32 -14.3389 -32 -32s14.3389 -32 32 -32zM336 80c-8.83105 0 -16 -7.16895 -16 -16s7.16895 -16 16 -16h149.34l-10.6699 -32h-138.67c-8.83105 0 -16 -7.16895 -16 -16s7.16895 -16 16 -16h128
l-1.41016 -4.24023c-8.47363 -25.4199 -32.458 -43.7578 -60.71 -43.7598h-145.88v192h256l-16 -48h-160z" />
    <glyph glyph-name="head-side-virus" unicode="&#xe064;" 
d="M272 208c8.83105 0 16 -7.16895 16 -16s-7.16895 -16 -16 -16s-16 7.16895 -16 16s7.16895 16 16 16zM208 272c8.83105 0 16 -7.16895 16 -16s-7.16895 -16 -16 -16s-16 7.16895 -16 16s7.16895 16 16 16zM509.2 173c1.76367 -3.9668 2.75879 -8.38281 2.75879 -13
c0 -17.6475 -14.3164 -31.9775 -31.959 -32h-32v-64c0 -35.3223 -28.6777 -64 -64 -64h-64v-64h-256v177.19c-39.3125 35.0342 -64 86.0137 -64 142.763v0.046875c0 106 86 192 192 192h74.0898c70.3008 0 132.405 -34.7725 170.04 -88.25
c24.6396 -35.0195 52.1396 -139.63 73.0703 -186.75zM368 208c8.83105 0 16 7.16895 16 16s-7.16895 16 -16 16h-12.1201c-28.5098 0 -42.79 34.4697 -22.6299 54.6299l8.58008 8.57031c2.89648 2.89648 4.68457 6.90137 4.68457 11.3174
c0 8.83105 -7.16992 16.002 -16.002 16.002c-4.41602 0 -8.41602 -1.79297 -11.3125 -4.68945l-8.57031 -8.58008c-20.1602 -20.1602 -54.6299 -5.87988 -54.6299 22.6299v12.1201c0 8.83105 -7.16895 16 -16 16s-16 -7.16895 -16 -16v-12.1201
c0 -28.5098 -34.4697 -42.79 -54.6299 -22.6299l-8.57031 8.58008c-2.89648 2.89648 -6.90137 4.68457 -11.3174 4.68457c-8.83105 0 -16.002 -7.16992 -16.002 -16.002c0 -4.41602 1.79297 -8.41602 4.68945 -11.3125l8.58008 -8.57031
c20.1602 -20.1602 5.87988 -54.6299 -22.6299 -54.6299h-12.1201c-8.83105 0 -16 -7.16895 -16 -16s7.16895 -16 16 -16h12.1201c28.5098 0 42.79 -34.4697 22.6299 -54.6299l-8.58008 -8.57031c-2.89648 -2.89648 -4.68457 -6.90137 -4.68457 -11.3174
c0 -8.83105 7.16992 -16.002 16.002 -16.002c4.41602 0 8.41602 1.79297 11.3125 4.68945l8.57031 8.58008c20.1602 20.1602 54.6299 5.87988 54.6299 -22.6299v-12.1201c0 -8.83105 7.16895 -16 16 -16s16 7.16895 16 16v12.1201c0 28.5098 34.4697 42.79 54.6299 22.6299
l8.57031 -8.58008c2.89648 -2.89648 6.90137 -4.68457 11.3174 -4.68457c8.83105 0 16.002 7.16992 16.002 16.002c0 4.41602 -1.79297 8.41602 -4.68945 11.3125l-8.58008 8.57031c-20.1602 20.1602 -5.87988 54.6299 22.6299 54.6299h12.1201z" />
    <glyph glyph-name="house-user" unicode="&#xe065;" horiz-adv-x="576" 
d="M570.69 211.73c2.9082 -3.21777 4.83887 -7.36914 5.30957 -11.9209c-0.388672 -3.95801 -1.85742 -7.64648 -4.08984 -10.6895l-21.4102 -23.8105c-3.20117 -2.90527 -7.33496 -4.83594 -11.8701 -5.30957c-3.9668 0.40625 -7.66406 1.88379 -10.7197 4.12012
l-15.9102 14v-210.12c0 -17.6611 -14.3389 -32 -32 -32h-383.91c-17.6611 0 -32 14.3389 -32 32v210.11l-15.8994 -14c-3.04297 -2.23926 -6.73047 -3.71484 -10.6904 -4.11035c-4.57715 0.460938 -8.75586 2.38867 -12 5.2998l-21.4102 23.79
c-2.37695 2.95605 -3.87891 6.67773 -4.08984 10.71c0.241211 4.62402 2.20312 8.8125 5.25977 11.9004l256 226c6.28027 5.68945 18.21 10.2998 26.7402 10.2998s20.5 -4.61035 26.7803 -10.2998l101.22 -89.3701v51.6699c0 8.83105 7.16895 16 16 16h64
c8.83105 0 16 -7.16895 16 -16v-136.44zM288 272c-35.3223 0 -64 -28.6777 -64 -64s28.6777 -64 64 -64s64 28.6777 64 64s-28.6777 64 -64 64zM400 0c8.83105 0 16 7.16895 16 16c0 52.9834 -43.0166 96 -96 96h-64c-52.9834 0 -96 -43.0166 -96 -96
c0 -8.83105 7.16895 -16 16 -16h224z" />
    <glyph glyph-name="laptop-house" unicode="&#xe066;" horiz-adv-x="640" 
d="M272 160v-128h-176c-17.6611 0 -32 14.3389 -32 32v164.12l-21.6602 -19.1201c-2.5957 -2.02832 -5.83691 -3.30469 -9.33984 -3.48047c-4.15527 0.22168 -7.91113 2.00684 -10.6602 4.78027l-18.79 21.3105c-2.06836 2.59668 -3.37207 5.8584 -3.5498 9.38965
c0.234375 4.12598 2.01758 7.85352 4.78027 10.5801l211.8 187.5c5.54004 4.91992 16.0703 8.91992 23.4697 8.91992c7.40039 0 17.9502 -4 23.4502 -8.91992l88.5 -78.3799v39.2998c0 8.83105 7.16895 16 16 16h32c8.83105 0 16 -7.16895 16 -16v-96l59.25 -52.3896
c2.74609 -2.74707 4.5166 -6.48145 4.75 -10.6104c-0.186523 -3.56445 -1.51172 -6.85449 -3.61035 -9.46973l-6.64941 -7.53027h-136.94c-17.7998 0 -33.6895 -8.24023 -44.7998 -21.1201v37.1201c0 8.83105 -7.16895 16 -16 16h-64c-8.83105 0 -16 -7.16895 -16 -16v-64
c0 -8.83105 7.16895 -16 16 -16h64zM629.33 0c5.88867 0 10.6699 -4.78125 10.6699 -10.6699v-10.6602c-0.0820312 -23.4883 -19.1201 -42.5498 -42.5996 -42.6699h-298.801c-23.4795 0.120117 -42.5176 19.1816 -42.5996 42.6699v10.6602
c0 5.88867 4.78125 10.6699 10.6699 10.6699h37.3301v160c0 17.6699 12.8896 32 28.7998 32h230.4c15.9102 0 28.7998 -14.3301 28.7998 -32v-160h37.3301zM544 0v144h-192v-144h192z" />
    <glyph glyph-name="lungs-virus" unicode="&#xe067;" horiz-adv-x="640" 
d="M344 297.32c-6.99512 4.2207 -15.291 6.65039 -24.0498 6.65039s-16.9551 -2.42969 -23.9502 -6.65039v134.68c0 8.83105 7.16895 16 16 16h16c8.83105 0 16 -7.16895 16 -16v-134.68zM195.54 3.54004c8.44824 -8.67969 20.2178 -14.0645 33.2754 -14.0645
c2.87988 0 5.69922 0.261719 8.43457 0.764648c-13.043 -16.7764 -31.3789 -29.1445 -52.5 -34.75l-59.5 -15.8701c-62.75 -16.8799 -125.25 27.3799 -125.25 88.6299c0 0.0820312 0.0126953 0.125 0.0126953 0.207031c0 10.1719 1.3457 20.0322 3.86719 29.4131
c22.0361 82.46 57.0371 160.927 102 231c22.1201 34.6299 36.1201 63.1299 80.1201 63.1299c38.6201 0 70 -29.3799 70 -65.75v-27.6797c-7.62012 5.0918 -16.832 8.08496 -26.6768 8.08496c-26.4922 0 -48 -21.5088 -48 -48c0 -13.3232 5.43945 -25.3848 14.2168 -34.085
l8.58008 -8.57031h-12.1201c-26.4922 0 -48 -21.5078 -48 -48s21.5078 -48 48 -48h12.1201l-8.58008 -8.58008c-8.67383 -8.69531 -14.0391 -20.707 -14.0391 -33.9473s5.36523 -25.2363 14.0391 -33.9326zM421.83 26.1699
c-2.89648 -2.89648 -6.90137 -4.68945 -11.3174 -4.68945s-8.41602 1.79297 -11.3125 4.68945l-8.57031 8.57031c-20.1602 20.1602 -54.6299 5.87988 -54.6299 -22.6201v-12.1201c0 -8.83105 -7.16895 -16 -16 -16s-16 7.16895 -16 16v12.1201
c0 28.5 -34.4697 42.7803 -54.6299 22.6201l-8.57031 -8.57031c-2.9082 -2.99609 -6.98242 -4.85449 -11.4834 -4.85449c-8.83105 0 -16 7.16992 -16 16c0 4.49902 1.86035 8.56641 4.85352 11.4746l8.58008 8.58008c20.1602 20.1602 5.87988 54.6299 -22.6299 54.6299
h-12.1201c-8.83105 0 -16 7.16895 -16 16s7.16895 16 16 16h12.1201c28.5098 0 42.79 34.4697 22.6299 54.6201l-8.58008 8.58008c-2.89648 2.89648 -4.68457 6.90137 -4.68457 11.3174c0 8.83105 7.16992 16.002 16.002 16.002
c4.41602 0 8.41602 -1.79297 11.3125 -4.68945l8.57031 -8.58008c20.1602 -20.1602 54.6299 -5.87988 54.6299 22.6299v12.1201c0 8.83105 7.16895 16 16 16s16 -7.16895 16 -16v-12.1201c0 -28.5098 34.4697 -42.79 54.6299 -22.6299l8.57031 8.58008
c2.89648 2.89648 6.90137 4.68457 11.3174 4.68457c8.83105 0 16.002 -7.16992 16.002 -16.002c0 -4.41602 -1.79297 -8.41602 -4.68945 -11.3125l-8.58008 -8.58008c-20.1602 -20.1504 -5.87988 -54.6201 22.6299 -54.6201h12.1201c8.83105 0 16 -7.16895 16 -16
s-7.16895 -16 -16 -16h-12.1201c-28.5098 0 -42.79 -34.4697 -22.6299 -54.6299l8.58008 -8.58008c2.89355 -2.89551 4.68457 -6.89844 4.68457 -11.3125c0 -4.41309 -1.79102 -8.41211 -4.68457 -11.3076zM288 144c8.83105 0 16 7.16895 16 16s-7.16895 16 -16 16
s-16 -7.16895 -16 -16s7.16895 -16 16 -16zM352 80c8.83105 0 16 7.16895 16 16s-7.16895 16 -16 16s-16 -7.16895 -16 -16s7.16895 -16 16 -16zM636.12 57.8701c2.52148 -9.38086 3.87988 -19.2021 3.87988 -29.374v-0.246094c0 -61.25 -62.5 -105.51 -125.25 -88.6299
l-59.5 15.8701c-21.1211 5.60547 -39.457 17.9736 -52.5 34.75c2.77246 -0.50293 5.59766 -0.761719 8.51465 -0.761719c26.3262 0 47.7002 21.374 47.7002 47.7002c0 13.4287 -5.56152 25.5693 -14.5049 34.2412l-8.58008 8.58008h12.1201c26.4922 0 48 21.5078 48 48
s-21.5078 48 -48 48h-12.1201l8.58008 8.53027c8.77734 8.7002 14.1602 20.7393 14.1602 34.0615c0 26.4922 -21.5078 48 -48 48c-9.84375 0 -19 -2.96973 -26.6201 -8.06152v27.7197c0 36.3701 31.3799 65.75 70 65.75c44 0 58 -28.5 80.1201 -63.1299
c44.9629 -70.0732 79.9639 -148.54 102 -231z" />
    <glyph glyph-name="people-arrows" unicode="&#xe068;" horiz-adv-x="576" 
d="M96 320c-35.3223 0 -64 28.6777 -64 64s28.6777 64 64 64s64 -28.6777 64 -64s-28.6777 -64 -64 -64zM96 143.92c0 -0.0400391 -0.0117188 -0.078125 -0.0117188 -0.119141c0 -12.5332 5.24219 -23.8516 13.6514 -31.8809l50.3604 -47.5303v-96.3896
c0 -17.6611 -14.3389 -32 -32 -32h-64c-17.6611 0 -32 14.3389 -32 32v128c-17.6611 0 -32 14.3389 -32 32v96c0 35.3223 28.6777 64 64 64h64c26.9717 -0.0253906 50.0303 -16.7598 59.3799 -40.4297c-1.83984 -1.26074 -3.95996 -2.02051 -5.61035 -3.57031
l-72.1299 -68.0801c-8.40918 -8.03418 -13.6396 -19.3555 -13.6396 -31.8926v-0.107422zM480 320c-35.3223 0 -64 28.6777 -64 64s28.6777 64 64 64s64 -28.6777 64 -64s-28.6777 -64 -64 -64zM512 288c35.3223 0 64 -28.6777 64 -64v-96c0 -17.6611 -14.3389 -32 -32 -32
v-128c0 -17.6611 -14.3389 -32 -32 -32h-64c-17.6611 0 -32 14.3389 -32 32v96.3799l50.3604 47.5498c8.4082 8.07617 13.6445 19.4336 13.6445 32.002c0 12.5674 -5.23633 23.9219 -13.6445 31.998l-72.1201 68.0605c-1.62012 1.58984 -3.78027 2.31934 -5.62012 3.58984
c9.35352 23.666 32.4102 40.3965 59.3799 40.4199h64zM444.4 152.66c2.22461 -2.24219 3.59961 -5.33203 3.59961 -8.7373c0 -3.4043 -1.375 -6.49121 -3.59961 -8.73242l-72.1201 -68.0703c-2.1543 -2.05371 -5.07227 -3.31543 -8.28027 -3.31543
c-6.62305 0 -12 5.37695 -12 12v0.0556641v36.1396h-128v-36.1396c0 -0.0185547 -0.00292969 -0.0361328 -0.00292969 -0.0546875c0 -6.62305 -5.37695 -12 -12 -12c-3.20801 0 -6.12305 1.26074 -8.27734 3.31445l-72.1201 68.0703
c-2.22461 2.24121 -3.59961 5.33203 -3.59961 8.73633c0 3.40527 1.375 6.49121 3.59961 8.7334l72.1201 68.0703c2.1543 2.05273 5.07227 3.31445 8.28027 3.31445c6.62305 0 12 -5.37695 12 -12v-0.0449219v-36h128v36
c0 0.0117188 0.00292969 0.0224609 0.00292969 0.0341797c0 6.62305 5.37695 12 12 12c3.20801 0 6.12305 -1.26074 8.27734 -3.31445z" />
    <glyph glyph-name="plane-slash" unicode="&#xe069;" horiz-adv-x="640" 
d="M32.4805 300.12c-0.258789 1.12109 -0.386719 2.2959 -0.386719 3.49512c0 2.94531 0.825195 5.7002 2.25586 8.04492l324.841 -251.061l-66.6006 -116.54c-2.75684 -4.82227 -7.94141 -8.05957 -13.8896 -8.05957h-65.5
c-8.81641 0.0166016 -15.9678 7.17676 -15.9678 15.9971c0 1.53027 0.21582 3.01074 0.617188 4.41309l49 171.59h-102.85l-43.2002 -57.5898c-2.91797 -3.89648 -7.5625 -6.40723 -12.7998 -6.41016h-40c-8.82812 0.00292969 -15.9941 7.16406 -15.9941 15.9932
c0 1.33691 0.165039 2.63574 0.474609 3.87695l31.5195 108.13zM633.82 -10.0898c3.77148 -2.92871 6.18164 -7.51074 6.18164 -12.6514c0 -3.69531 -1.25488 -7.09863 -3.3623 -9.80859l-19.6396 -25.2598c-2.92773 -3.77246 -7.51074 -6.18262 -12.6514 -6.18262
c-3.69434 0 -7.09863 1.25488 -9.80859 3.3623l-588.36 454.72c-3.76855 2.92871 -6.17578 7.50879 -6.17578 12.6465c0 3.69727 1.25684 7.10352 3.36621 9.81348l19.6299 25.2598c2.92871 3.76855 7.50879 6.17676 12.6465 6.17676
c3.69727 0 7.10254 -1.25684 9.81348 -3.36621l189.3 -146.3l-36.9395 129.29c-0.398438 1.39551 -0.614258 2.86621 -0.614258 4.38965c0 8.8291 7.16602 15.9971 15.9941 16h65.5098c5.12988 0 11.3496 -3.61035 13.9004 -8.05957l105.09 -183.94h114.3
c35.3398 0 96 -28.6602 96 -64s-60.6602 -64 -96 -64h-56.8604z" />
    <glyph glyph-name="pump-medical" unicode="&#xe06a;" horiz-adv-x="384" 
d="M235.51 288.18c33.3369 -0.00195312 60.7559 -25.6123 63.7305 -58.1797l20.3701 -224c0.175781 -1.93066 0.262695 -3.82324 0.262695 -5.7998c0 -35.3203 -28.6738 -63.9961 -63.9932 -64h-192c-35.3223 0 -64.0059 28.6143 -64.0059 63.9365
c0 1.97656 0.0898438 3.93262 0.265625 5.86328l20.3701 224c2.97461 32.5674 30.3936 58.1777 63.7305 58.1797h151.27zM239.88 114.85v26.6602c0 7.3623 -5.97754 13.3398 -13.3398 13.3398h-40v40c0 7.35742 -5.97266 13.3301 -13.3301 13.3301h-26.6699
c-7.35742 0 -13.3301 -5.97266 -13.3301 -13.3301v-40h-40c-7.35742 0 -13.3301 -5.97266 -13.3301 -13.3291v-0.0107422v-26.6602c0 -7.3584 5.97266 -13.334 13.3301 -13.3398h40v-40c0 -7.35645 5.97266 -13.3301 13.3301 -13.3301h26.6699
c7.35742 0 13.3301 5.97363 13.3301 13.3301v40h40c7.36035 0.00585938 13.334 5.98047 13.3398 13.3398zM379.19 354.12c2.89648 -2.89648 4.68945 -6.90137 4.68945 -11.3174s-1.79297 -8.41602 -4.68945 -11.3125l-22.6201 -22.6201
c-2.89648 -2.89746 -6.90137 -4.68945 -11.3174 -4.68945s-8.41699 1.79199 -11.3125 4.68945l-43.3105 43.3096h-66.75v-32h-128v96c0 17.6611 14.3389 32 32 32h64c17.6611 0 32 -14.3389 32 -32h66.75c17.6553 -0.00195312 33.6582 -7.16016 45.2402 -18.7393z" />
    <glyph glyph-name="pump-soap" unicode="&#xe06b;" horiz-adv-x="384" 
d="M235.63 288c0.00390625 0 0.0107422 -0.0634766 0.0146484 -0.0634766c33.3496 0 60.7754 -25.5625 63.7354 -58.1465l20.3604 -224c0.174805 -1.92773 0.259766 -3.81738 0.259766 -5.79004c0 -35.3223 -28.6777 -64 -64 -64h-192
c-35.3193 0.00390625 -63.9941 28.6172 -63.9941 63.9365c0 1.97363 0.0888672 3.92578 0.263672 5.85352l20.3604 224c2.95996 32.584 30.3906 58.21 63.7402 58.21h151.26zM160 32c33.1201 0 60 26.3301 60 58.7305c0 25 -35.6699 75.4697 -52 97.2695
c-1.82422 2.43848 -4.72559 4.01855 -8.00293 4.01855c-3.26758 0 -6.17188 -1.57129 -7.99707 -3.99902c-16.2998 -21.7998 -52 -72.2695 -52 -97.2695c0 -32.4199 26.8799 -58.75 60 -58.75zM379.31 353.94c2.89746 -2.89648 4.69043 -6.90137 4.69043 -11.3174
s-1.79297 -8.41699 -4.69043 -11.3135l-22.6191 -22.6191c-2.89648 -2.89746 -6.90137 -4.69043 -11.3174 -4.69043s-8.41699 1.79297 -11.3135 4.69043l-43.3096 43.3096h-66.75v-32h-128v96c0 17.6611 14.3389 32 32 32h64c17.6611 0 32 -14.3389 32 -32h66.75
c17.6582 0 33.666 -7.1582 45.25 -18.7402z" />
    <glyph glyph-name="shield-virus" unicode="&#xe06c;" 
d="M224 256c8.83105 0 16 -7.16895 16 -16s-7.16895 -16 -16 -16s-16 7.16895 -16 16s7.16895 16 16 16zM466.5 364.32c17.3359 -7.24121 29.5 -24.3428 29.5 -44.291v-0.0292969c0 -221.3 -135.91 -344.61 -221.59 -380.32
c-5.67578 -2.3584 -11.9619 -3.66016 -18.4873 -3.66016c-6.52441 0 -12.7471 1.30176 -18.4229 3.66016c-107 44.6006 -221.5 181.82 -221.5 380.32c0 0.0166016 -0.03125 0.0107422 -0.03125 0.0263672c0 19.9707 12.2402 37.1055 29.6211 44.3037l192 80
c5.75293 2.17188 12 3.46582 18.46 3.66992c6.45605 -0.208008 12.7012 -1.50586 18.4502 -3.67969zM384 192c8.83105 0 16 7.16895 16 16s-7.16895 16 -16 16h-12.1201c-28.5098 0 -42.79 34.4697 -22.6299 54.6299l8.58008 8.57031
c2.89648 2.89648 4.68457 6.90137 4.68457 11.3174c0 8.83105 -7.16992 16.002 -16.002 16.002c-4.41602 0 -8.41602 -1.79297 -11.3125 -4.68945l-8.57031 -8.58008c-20.1602 -20.1602 -54.6299 -5.87988 -54.6299 22.6299v12.1201c0 8.83105 -7.16895 16 -16 16
s-16 -7.16895 -16 -16v-12.1201c0 -28.5098 -34.4697 -42.79 -54.6299 -22.6299l-8.57031 8.58008c-2.89648 2.89648 -6.90137 4.68457 -11.3174 4.68457c-8.83105 0 -16.002 -7.16992 -16.002 -16.002c0 -4.41602 1.79297 -8.41602 4.68945 -11.3125l8.58008 -8.57031
c20.1602 -20.1602 5.87988 -54.6299 -22.6299 -54.6299h-12.1201c-8.83105 0 -16 -7.16895 -16 -16s7.16895 -16 16 -16h12.1201c28.5098 0 42.79 -34.4697 22.6299 -54.6299l-8.58008 -8.57031c-2.89648 -2.89648 -4.68457 -6.90137 -4.68457 -11.3174
c0 -8.83105 7.16992 -16.002 16.002 -16.002c4.41602 0 8.41602 1.79297 11.3125 4.68945l8.57031 8.58008c20.1602 20.1602 54.6299 5.87988 54.6299 -22.6299v-12.1201c0 -8.83105 7.16895 -16 16 -16s16 7.16895 16 16v12.1201c0 28.5098 34.4697 42.79 54.6299 22.6299
l8.57031 -8.58008c2.89648 -2.89648 6.90137 -4.68457 11.3174 -4.68457c8.83105 0 16.002 7.16992 16.002 16.002c0 4.41602 -1.79297 8.41602 -4.68945 11.3125l-8.58008 8.57031c-20.1602 20.1602 -5.87988 54.6299 22.6299 54.6299h12.1201zM288 192
c8.83105 0 16 -7.16895 16 -16s-7.16895 -16 -16 -16s-16 7.16895 -16 16s7.16895 16 16 16z" />
    <glyph glyph-name="sink" unicode="&#xe06d;" 
d="M32 32v32h448v-32c0 -52.9834 -43.0166 -96 -96 -96h-256c-52.9834 0 -96 43.0166 -96 96zM496 160c8.83105 0 16 -7.16895 16 -16v-32c0 -8.83105 -7.16895 -16 -16 -16h-480c-8.83105 0 -16 7.16895 -16 16v32c0 8.83105 7.16895 16 16 16h96v32h-64
c-8.83105 0 -16 7.16895 -16 16v16c0 8.83105 7.16895 16 16 16h80c17.6611 0 32 -14.3389 32 -32v-48h64v188.21c0 46.4297 31.29 89.0801 76.8701 97.9297c6.15625 1.23926 12.4512 1.8877 18.9697 1.8877c53.0283 0 96.0879 -43.0166 96.1602 -96.0273v-16
c0 -8.83105 -7.16895 -16 -16 -16h-32c-8.83105 0 -16 7.16895 -16 16v16c0 17.6611 -14.3389 32 -32 32s-32 -14.3389 -32 -32v-192h64v48c0 17.6611 14.3389 32 32 32h80c8.83105 0 16 -7.16895 16 -16v-16c0 -8.83105 -7.16895 -16 -16 -16h-64v-32h96z" />
    <glyph glyph-name="soap" unicode="&#xe06e;" 
d="M416 256c52.9834 0 96 -43.0166 96 -96v-128c0 -52.9834 -43.0166 -96 -96 -96h-320c-52.9834 0 -96 43.0166 -96 96v128c0 52.9834 43.0166 96 96 96h128c0.0634766 -24.6279 9.49707 -47.1133 24.9102 -64h-88.9102c-52.9834 0 -96 -43.0166 -96 -96
s43.0166 -96 96 -96h192c0.0703125 0 0.171875 -0.0322266 0.242188 -0.0322266c52.873 0 95.7998 42.9268 95.7998 95.7998c0 41.3477 -26.251 76.6123 -62.9824 90.0225c19.0049 17.4219 30.9033 42.4307 30.9404 70.21zM320 192c-35.3223 0 -64 28.6777 -64 64
s28.6777 64 64 64s64 -28.6777 64 -64s-28.6777 -64 -64 -64zM208 352c-26.4922 0 -48 21.5078 -48 48s21.5078 48 48 48s48 -21.5078 48 -48s-21.5078 -48 -48 -48zM384 384c-17.6611 0 -32 14.3389 -32 32s14.3389 32 32 32s32 -14.3389 32 -32s-14.3389 -32 -32 -32z
M160 160h192c35.3223 0 64 -28.6777 64 -64s-28.6777 -64 -64 -64h-192c-35.3223 0 -64 28.6777 -64 64s28.6777 64 64 64z" />
    <glyph glyph-name="stopwatch-20" unicode="&#xe06f;" horiz-adv-x="448" 
d="M398.5 257.09c21.1045 -32.3291 33.501 -71.1426 33.501 -112.596c0 -0.165039 -0.000976562 -0.329102 -0.000976562 -0.494141c0 -116 -94.8701 -209.77 -211.28 -208c-113.96 1.78027 -208.08 100.5 -204.63 214.43c3.10156 100.915 78.4639 183.935 175.91 199.07
v34.5h-32c-8.81836 0.0273438 -15.9727 7.18164 -16 16v32c0.0273438 8.81836 7.18164 15.9727 16 16h128c8.83105 0 16 -7.16895 16 -16v-32c0 -8.83105 -7.16895 -16 -16 -16h-32v-34.5c37.3506 -5.76855 71.749 -21.625 99.6904 -44.5898l24.6797 24.6797
c2.89648 2.89746 6.90137 4.69043 11.3174 4.69043s8.41602 -1.79297 11.3125 -4.69043l22.6797 -22.6797c2.89746 -2.89648 4.69043 -6.90137 4.69043 -11.3174s-1.79297 -8.41602 -4.69043 -11.3125l-26.5898 -26.5801zM204.37 70.4502l-49.1299 0.0400391
c1.7998 15.6299 14.8496 36.2002 26.4102 51.2002c21.9092 30.0996 34.3496 45.7295 34.3496 81.3096c0 35.1504 -12.5703 61 -55.5703 61c-47.9492 0 -56.4297 -32.9404 -56.4297 -60.2402v-4.06934c0.0703125 -4.46582 3.71484 -8.07129 8.19629 -8.07129
c0.0449219 0 0.0888672 0 0.133789 0.000976562h24.9004c0.0439453 -0.000976562 0.0859375 0.000976562 0.130859 0.000976562c4.48145 0 8.12891 3.60352 8.19824 8.06934v5.22949c0 15.2803 3.30078 22.6797 12.6904 22.6797c10.4199 0 12.21 -7.34961 12.21 -24.2695
c0 -25.0205 -6.67969 -33.1504 -27.0996 -62.3398c-23.7803 -33.96 -35.6699 -56.1504 -38.4502 -91.3701c-0.0273438 -0.388672 -0.0449219 -0.765625 -0.0449219 -1.16113c0 -9.08496 7.37598 -16.46 16.46 -16.46c0.0654297 0 0.129883 0 0.194336 0.000976562h82.8506
c0.0410156 -0.000976562 0.0800781 0.000976562 0.121094 0.000976562c4.48145 0 8.12891 3.60352 8.19922 8.06934v22.3096c-0.0703125 4.46484 -3.71582 8.07129 -8.19727 8.07129c-0.0410156 0 -0.0820312 -0.000976562 -0.123047 -0.000976562zM344 95.6797v107.021
c0 38.6602 -19 61.2998 -55.7998 61.2998c-36.6201 0 -56.2002 -22.4902 -56.2002 -63.2197v-105.33c0 -33.9307 11.1904 -63.4502 54.7695 -63.4502c44.9307 0 57.2305 28.5195 57.2305 63.6797zM287.87 226.27c10.0098 0 13.0195 -8.05957 13 -19.3291v-115.94
c0 -13.2695 -3.36035 -21.2695 -13 -21.2695s-13.2305 7.47949 -13.2305 20.5898v115.949c0 12.5 3.82031 20 13.2305 20z" />
    <glyph glyph-name="store-alt-slash" unicode="&#xe070;" horiz-adv-x="640" 
d="M17.8896 324.38l88.4707 -68.3799h-74.2607c-25.5898 0 -40.79 28.5 -26.5898 49.7998zM576 34.5801l57.8301 -44.6797c3.76562 -2.92871 6.1709 -7.50781 6.1709 -12.6426c0 -3.69434 -1.25488 -7.09863 -3.36133 -9.80762l-19.6396 -25.2598
c-2.92773 -3.77539 -7.5127 -6.1875 -12.6553 -6.1875c-3.69727 0 -7.10352 1.25684 -9.81445 3.36719l-588.351 454.72c-3.76562 2.92871 -6.1709 7.50781 -6.1709 12.6426c0 3.69434 1.25488 7.09766 3.36133 9.80762l19.6299 25.2695
c2.92871 3.76855 7.50879 6.17676 12.6465 6.17676c3.69727 0 7.10254 -1.25684 9.81348 -3.36621l34.6904 -26.8203l10.6592 16c5.71387 8.57715 15.4521 14.2002 26.5215 14.2002h0.0888672h405.18c0.00390625 0 -0.0107422 0.0322266 -0.00683594 0.0322266
c11.1172 0 20.9248 -5.64941 26.707 -14.2324l85.29 -128c14.1104 -21.2998 -1.08984 -49.7998 -26.5898 -49.7998h-318.48l41.4004 -32h53.0801v-41l128 -99v140h64v-189.42zM320 64v26.8799l64 -49.4697v-73.4102c0 -17.6611 -14.3389 -32 -32 -32h-256
c-17.6611 0 -32 14.3389 -32 32v256h64v-160h192z" />
    <glyph glyph-name="store-slash" unicode="&#xe071;" horiz-adv-x="640" 
d="M121.51 64h226.91l157.33 -128h-414.52c-16.8105 0 -30.4004 14.2998 -30.4004 32v196.8c5.02051 -1.53516 10.2939 -2.76074 15.5801 -3.59961c5.62891 -0.791016 11.2549 -1.19727 17.0996 -1.2002c9.65723 0.157227 19.0283 1.47559 28 3.7998v-99.7998z
M93.5098 192.09c-0.0644531 0 -0.0566406 -0.00390625 -0.121094 -0.00390625c-4.37402 0 -8.67969 0.294922 -12.8984 0.864258c-58.9404 8.46973 -87.0098 81.6094 -56.4902 135l133.51 -108.62c-16.71 -16.5205 -38.8994 -27.2402 -64 -27.2402zM602.13 -10.0898
c3.59863 -3.04297 5.86719 -7.59961 5.86719 -12.6758c0 -3.6582 -1.1875 -7.04102 -3.19727 -9.78418l-18.6602 -25.2598c-2.66211 -3.74902 -7.04102 -6.17871 -11.9854 -6.17871c-3.54785 0 -6.80469 1.26074 -9.34473 3.3584l-558.939 454.72
c-3.59863 3.04297 -5.86719 7.59961 -5.86719 12.6758c0 3.6582 1.1875 7.04102 3.19727 9.78418l18.6602 25.2598c2.66016 3.74805 7.03711 6.17676 11.9785 6.17676c3.55176 0 6.81055 -1.26367 9.35156 -3.36621l33.6895 -27.4004l9.38965 15.7803
c5.16309 8.89941 14.7383 14.8848 25.7305 15h383.81c10.998 -0.109375 20.5781 -6.09668 25.7402 -15l61.6602 -103.6c31.9404 -53.6006 3.59961 -127.99 -56.0596 -136.4c-4.28027 -0.598633 -8.55762 -0.90625 -13 -0.910156c-28.0303 0 -52.9199 13 -70.1104 33.1104
c-17.1104 -20.1104 -42 -33.1104 -70.1104 -33.1104c-8.83496 0.130859 -17.3857 1.58594 -25.4102 4.14062l137.82 -112.11v79.6797c8.95801 -2.36523 18.3291 -3.6875 28 -3.7998c5.9082 0.00683594 11.5957 0.412109 17.29 1.2002
c5.31152 0.757812 10.584 1.9873 15.5703 3.59961v-130.21z" />
    <glyph glyph-name="toilet-paper-slash" unicode="&#xe072;" horiz-adv-x="640" 
d="M64 256c0 10.8096 0.530273 21.3398 1.41992 31.6699l316 -244.25c-4.17969 -32.2002 -12.8701 -57.7197 -22.1797 -85.5498c-4.19727 -12.7002 -16.1592 -21.8701 -30.2588 -21.8701h-0.121094h-280.86c-8.79395 0.0429688 -15.917 7.19824 -15.917 16.002
c0 1.74512 0.279297 3.4248 0.796875 4.99805c21.3701 64.1201 31.1201 85.75 31.1201 126.87v172.13zM633.82 -10.0898c3.77148 -2.92871 6.18164 -7.51074 6.18164 -12.6514c0 -3.69531 -1.25488 -7.09863 -3.3623 -9.80859l-19.6396 -25.2598
c-2.92773 -3.77246 -7.51074 -6.18262 -12.6514 -6.18262c-3.69434 0 -7.09863 1.25488 -9.80859 3.3623l-588.36 454.72c-3.76855 2.92871 -6.17578 7.50879 -6.17578 12.6465c0 3.69727 1.25684 7.10352 3.36621 9.81348l19.6299 25.2598
c2.92871 3.76855 7.50879 6.17676 12.6465 6.17676c3.69727 0 7.10254 -1.25684 9.81348 -3.36621l53.2803 -41.1504c16.6299 27.7002 37.9297 44.5303 61.2598 44.5303h284.5c-36.8701 -38.5 -60.5 -108.38 -60.5 -192v-73l50.4297 -39
c-11.4297 31.5996 -18.4297 70 -18.4297 112c0 106 43 192 96 192s96 -86 96 -192c0 -92.3203 -32.7197 -168.91 -76.1797 -187.28zM512 192c17.6201 0 32 28.6299 32 64s-14.3701 64 -32 64s-32 -28.6201 -32 -64s14.3701 -64 32 -64z" />
    <glyph glyph-name="users-slash" unicode="&#xe073;" horiz-adv-x="640" 
d="M132.65 235.68c-10.3945 -7.33496 -23.1328 -11.6836 -36.8105 -11.6836c-35.2344 0 -63.8398 28.6055 -63.8398 63.8398v0.164062c0.0615234 7.80859 1.5625 15.3242 4.20996 22.2197zM173.09 173.4c-40.2002 -21.9072 -68.8896 -62.1416 -75.1797 -109.4h-65.9102
c-17.6611 0 -32 14.3389 -32 32v32c0.0332031 35.3076 28.6924 63.9668 64 64h64c0.0224609 0 0.0537109 0.0078125 0.0771484 0.0078125c17.5605 0 33.4727 -7.11035 45.0127 -18.6074zM544 224c-35.3076 0.0332031 -63.9668 28.6924 -64 64c0 35.3223 28.6777 64 64 64
s64 -28.6777 64 -64s-28.6777 -64 -64 -64zM500.56 92.8896l133.271 -102.989c3.76562 -2.92871 6.1709 -7.50781 6.1709 -12.6426c0 -3.69434 -1.25488 -7.09863 -3.36133 -9.80762l-19.6396 -25.2705c-2.92773 -3.77051 -7.51074 -6.18066 -12.6504 -6.18066
c-3.69922 0 -7.1084 1.25879 -9.81934 3.37109l-588.351 454.72c-3.76562 2.92871 -6.1709 7.50781 -6.1709 12.6426c0 3.69434 1.25488 7.09766 3.36133 9.80762l19.6299 25.2695c2.92871 3.76855 7.50879 6.17676 12.6465 6.17676
c3.69727 0 7.10254 -1.25684 9.81348 -3.36621l163.94 -126.7c6.90918 55.25 53.46 98.0801 110.6 98.0801c0.0234375 0 0.0458984 0.000976562 0.0703125 0.000976562c61.7754 0 111.93 -50.1533 111.93 -111.93v-0.0712891c0 -47.3096 -29.54 -86.9297 -71 -103.23
l55.0898 -42.5996c37.6797 -6.53711 69.0986 -31.4668 84.4697 -65.2803zM128 44.79c0 59.79 45.7402 108.38 104 114.08l244.57 -189c-3.99707 -1.1582 -8.21582 -1.81152 -12.5703 -1.87012h-288c-26.4922 0 -48 21.5078 -48 48v28.79zM576 192
c35.3076 -0.0332031 63.9668 -28.6924 64 -64v-32c0 -17.6611 -14.3389 -32 -32 -32h-66c-6.21875 47.2666 -34.8916 87.5146 -75.0898 109.4c11.54 11.4971 27.4609 18.5996 45.0215 18.5996h0.0683594h64z" />
    <glyph glyph-name="virus" unicode="&#xe074;" 
d="M483.55 220.45c0.180664 0.00292969 0.332031 0.00488281 0.512695 0.00488281c15.7021 0 28.4502 -12.748 28.4502 -28.4502s-12.748 -28.4502 -28.4502 -28.4502c-0.180664 0 -0.362305 0.00195312 -0.542969 0.00488281h-21.5391
c-50.6807 0 -76.0703 -61.2793 -40.2305 -97.1191l15.25 -15.2402c4.66602 -5.06836 7.50879 -11.8418 7.50879 -19.2666c0 -15.7021 -12.748 -28.4502 -28.4502 -28.4502c-7.42578 0 -14.1904 2.85059 -19.2588 7.5166l-15.2402 15.2305
c-35.8398 35.8398 -97.1094 10.4492 -97.1094 -40.2305v-21.5195c0 -15.7021 -12.748 -28.4502 -28.4502 -28.4502s-28.4502 12.748 -28.4502 28.4502v21.5391c0 50.6807 -61.2695 76.0703 -97.1094 40.2305l-15.2402 -15.25
c-5.06836 -4.66602 -11.8418 -7.50879 -19.2666 -7.50879c-15.7021 0 -28.4502 12.748 -28.4502 28.4502c0 7.42578 2.85059 14.1904 7.5166 19.2588l15.2305 15.2402c35.8398 35.8398 10.4492 97.1191 -40.2305 97.1191h-21.5498
c-0.180664 -0.00292969 -0.361328 -0.00488281 -0.542969 -0.00488281c-15.7021 0 -28.4502 12.748 -28.4502 28.4502s12.748 28.4502 28.4502 28.4502c0.181641 0 0.362305 -0.00195312 0.542969 -0.00488281h21.5693c50.6807 0 76.0703 61.2695 40.2305 97.1094
l-15.25 15.25c-4.73047 5.08008 -7.61816 11.8994 -7.61816 19.3818c0 15.6963 12.7432 28.4404 28.4395 28.4404c7.48535 0 14.2988 -2.89844 19.3789 -7.63184l15.2402 -15.2305c35.8398 -35.8291 97.1094 -10.4492 97.1094 40.2305v21.5596
c0 15.7021 12.748 28.4502 28.4502 28.4502s28.4502 -12.748 28.4502 -28.4502v-21.5498c0 -50.6797 61.2695 -76.0596 97.1094 -40.2295l15.2402 15.2197c5.08008 4.7334 11.9023 7.62305 19.3867 7.62305c15.6963 0 28.4404 -12.7432 28.4404 -28.4395
c0 -7.48242 -2.89648 -14.2939 -7.62695 -19.374l-15.2305 -15.25c-35.8398 -35.8398 -10.4492 -97.1094 40.2305 -97.1094h21.5498zM224 176c26.4922 0 48 21.5078 48 48s-21.5078 48 -48 48s-48 -21.5078 -48 -48s21.5078 -48 48 -48zM304 120c13.2461 0 24 10.7539 24 24
s-10.7539 24 -24 24s-24 -10.7539 -24 -24s10.7539 -24 24 -24z" />
    <glyph glyph-name="virus-slash" unicode="&#xe075;" horiz-adv-x="640" 
d="M114 220.4c9.90039 0.0996094 19.7002 2.89941 28.0996 8l244.5 -189c-21.1992 -7.5 -38.1992 -26.8008 -38.1992 -53.4004v-21.5c0 -15.7002 -12.7002 -28.4004 -28.4004 -28.4004s-28.5 12.7002 -28.5 28.4004v21.5c0 50.7002 -61.2998 76 -97.0996 40.2002
l-15.2002 -15.2002c-0.5 -0.599609 -1.10059 -1.09961 -1.60059 -1.59961c-11.5 -10.6006 -29.5996 -9.90039 -40.1992 1.59961c-10.6006 11.5 -9.90039 29.5 1.59961 40.2002l15.2002 15.2998c35.8994 35.7998 10.5 97.0996 -40.2002 97.0996h-21.5996
c-15.7002 0 -28.4004 12.7002 -28.4004 28.4004s12.7002 28.4004 28.4004 28.4004h21.5996zM617 -57.7998c-5.40039 -7 -15.5 -8.2998 -22.4004 -2.90039l-588.399 454.7c-7 5.5 -8.2002 15.5 -2.7998 22.5l19.5996 25.2998c5.5 7 15.5 8.2002 22.5 2.7998l93.2002 -72.0996
c11.0996 11.0996 29.3994 11.5996 40.5 0.5l15.2998 -15.2002c35.7998 -35.8994 97.0996 -10.5 97.0996 40.2002v21.5996c0 15.7002 12.7002 28.4004 28.4004 28.4004s28.4004 -12.7002 28.5 -28.5v-21.5996c0 -50.7002 61.2998 -76 97.0996 -40.2002l15.2002 15.2002
c10.9004 10.0996 27.7002 10.0996 38.6006 0c11.5996 -10.7002 12.2998 -28.7002 1.59961 -40.2002l-15.2002 -15.2998c-35.8994 -35.8008 -10.5 -97.1006 40.2002 -97.1006h21.5c15.7002 0 28.4004 -12.7002 28.4004 -28.3994
c0 -15.7002 -12.7002 -28.4004 -28.4004 -28.4004h-21.5c-30.5 0 -51.2002 -22.0996 -55.4004 -47.5l163.2 -126c7 -5.5 8.2002 -15.5 2.7998 -22.5zM335.4 220.5c0.0996094 1.2002 0.599609 2.2998 0.5 3.5c0 26.5 -21.5 48 -48 48
c-5.2002 -0.0996094 -10.5 -1.09961 -15.4004 -2.90039z" />
    <glyph glyph-name="viruses" unicode="&#xe076;" horiz-adv-x="640" 
d="M624 96c8.83105 0 16 -7.16895 16 -16s-7.16895 -16 -16 -16h-12.1201c-28.5098 0 -42.79 -34.4697 -22.6299 -54.6299l8.58008 -8.57031c2.89648 -2.89648 4.68457 -6.90137 4.68457 -11.3174c0 -8.83105 -7.16992 -16.002 -16.002 -16.002
c-4.41602 0 -8.41602 1.79297 -11.3125 4.68945l-8.57031 8.58008c-20.1602 20.1602 -54.6299 5.87988 -54.6299 -22.6299v-12.1201c0 -8.83105 -7.16895 -16 -16 -16s-16 7.16895 -16 16v12.1201c0 28.5098 -34.4697 42.79 -54.6299 22.6299l-8.57031 -8.58008
c-2.89648 -2.89648 -6.90137 -4.68457 -11.3174 -4.68457c-8.83105 0 -16.002 7.16992 -16.002 16.002c0 4.41602 1.79297 8.41602 4.68945 11.3125l8.58008 8.57031c20.1602 20.1602 5.87988 54.6299 -22.6299 54.6299h-12.1201c-8.83105 0 -16 7.16895 -16 16
s7.16895 16 16 16h12.1201c28.5098 0 42.79 34.4697 22.6299 54.6299l-8.58008 8.57031c-2.89648 2.89648 -4.68457 6.90137 -4.68457 11.3174c0 8.83105 7.16992 16.002 16.002 16.002c4.41602 0 8.41602 -1.79297 11.3125 -4.68945l8.57031 -8.58008
c20.1602 -20.1602 54.6299 -5.87988 54.6299 22.6299v12.1201c0 8.83105 7.16895 16 16 16s16 -7.16895 16 -16v-12.1201c0 -28.5098 34.4697 -42.79 54.6299 -22.6299l8.57031 8.58008c2.89648 2.89648 6.90137 4.68457 11.3174 4.68457
c8.83105 0 16.002 -7.16992 16.002 -16.002c0 -4.41602 -1.79297 -8.41602 -4.68945 -11.3125l-8.58008 -8.57031c-20.1602 -20.1602 -5.87988 -54.6299 22.6299 -54.6299h12.1201zM480 64c17.6611 0 32 14.3389 32 32s-14.3389 32 -32 32s-32 -14.3389 -32 -32
s14.3389 -32 32 -32zM346.51 234.67c-38.0195 0 -57.0498 -45.96 -30.1699 -72.8398l11.4297 -11.4297c3.8623 -3.8623 6.24609 -9.20117 6.24609 -15.0879c0 -11.7744 -9.55957 -21.334 -21.334 -21.334c-5.88672 0 -11.2197 2.38965 -15.082 6.25195l-11.4297 11.4297
c-26.8398 26.8799 -72.8398 7.83008 -72.8398 -30.1699v-16.1602c0 -11.7725 -9.55762 -21.3301 -21.3301 -21.3301s-21.3301 9.55762 -21.3301 21.3301v16.1602c0 38.0195 -45.96 57.0498 -72.8398 30.1699l-11.4297 -11.4297
c-3.8623 -3.8623 -9.20117 -6.24609 -15.0879 -6.24609c-11.7744 0 -21.334 9.55957 -21.334 21.334c0 5.88672 2.38965 11.2197 6.25195 15.082l11.4297 11.4297c26.8799 26.8398 7.83008 72.8398 -30.1699 72.8398h-16.1602c-11.7725 0 -21.3301 9.55762 -21.3301 21.3301
s9.55762 21.3301 21.3301 21.3301h16.1602c38.0195 0 57.0498 45.96 30.1699 72.8398l-11.4297 11.4404c-3.83008 3.85645 -6.19043 9.17188 -6.19043 15.0312c0 11.7725 9.55762 21.3301 21.3301 21.3301c5.86035 0 11.1729 -2.36914 15.0303 -6.20215l11.4297 -11.4297
c26.8398 -26.8799 72.8398 -7.83008 72.8398 30.1699v16.1602c0 11.7725 9.55762 21.3301 21.3301 21.3301s21.3301 -9.55762 21.3301 -21.3301v-16.1602c0 -38.0195 45.96 -57.0498 72.8398 -30.1699l11.4297 11.4297c3.85742 3.83301 9.17578 6.19531 15.0361 6.19531
c11.7725 0 21.3301 -9.55762 21.3301 -21.3291c0 -5.85938 -2.36621 -11.1689 -6.19629 -15.0254l-11.4297 -11.4404c-26.8799 -26.8398 -7.83008 -72.8398 30.1699 -72.8398h16.1602c11.7725 0 21.3301 -9.55762 21.3301 -21.3301s-9.55762 -21.3301 -21.3301 -21.3301
h-16.1602zM160 256c17.6611 0 32 14.3389 32 32s-14.3389 32 -32 32s-32 -14.3389 -32 -32s14.3389 -32 32 -32zM240 224c8.83105 0 16 7.16895 16 16s-7.16895 16 -16 16s-16 -7.16895 -16 -16s7.16895 -16 16 -16z" />
    <glyph glyph-name="glass-martini" unicode="&#xf000;" 
d="M502.05 390.4l-214.05 -214.04v-192.36h56c22.0898 0 40 -17.9102 40 -40c0 -4.41992 -3.58008 -8 -8 -8h-240c-4.41992 0 -8 3.58008 -8 8c0 22.0898 17.9102 40 40 40h56v192.36l-214.05 214.04c-21.25 21.2598 -6.2002 57.5996 23.8496 57.5996h444.4
c30.0498 0 45.0996 -36.3398 23.8496 -57.5996z" />
    <glyph glyph-name="music" unicode="&#xf001;" 
d="M470.38 446.49c3.03613 0.957031 6.26953 1.47949 9.62012 1.47949c17.6514 0 31.9834 -14.3223 32 -31.9697v-352c0 -35.3496 -43 -64 -96 -64s-96 28.6602 -96 64s43 64 96 64c11.0361 -0.0605469 21.7158 -1.4248 32 -3.92969v184.609l-256 -75v-233.68
c0 -35.3398 -43 -64 -96 -64s-96 28.6602 -96 64s43 64 96 64c11.0352 -0.0625 21.7139 -1.42285 32 -3.91992v261.41c0.00878906 14.3125 9.43359 26.4336 22.4102 30.5098z" />
    <glyph glyph-name="search" unicode="&#xf002;" 
d="M505 5.2998c9.2998 -9.39941 9.2998 -24.5996 -0.0996094 -34l-28.3008 -28.2998c-9.2998 -9.40039 -24.5 -9.40039 -33.8994 0l-99.7002 99.7002c-4.5 4.5 -7 10.5996 -7 17v16.2998c-35.2998 -27.5996 -79.7002 -44 -128 -44c-114.9 0 -208 93.0996 -208 208
s93.0996 208 208 208s208 -93.0996 208 -208c0 -48.2998 -16.4004 -92.7002 -44 -128h16.2998c6.40039 0 12.5 -2.5 17 -7zM208 112c70.7998 0 128 57.2998 128 128c0 70.7998 -57.2998 128 -128 128c-70.7998 0 -128 -57.2998 -128 -128c0 -70.7998 57.2998 -128 128 -128z
" />
    <glyph glyph-name="heart" unicode="&#xf004;" 
d="M462.3 385.4c62.7998 -53.6006 66.1006 -149.801 9.7998 -207.9l-193.5 -199.8c-12.5 -12.9004 -32.7998 -12.9004 -45.2998 0l-193.5 199.8c-56.2002 58.0996 -52.8994 154.3 9.90039 207.9c54.7998 46.6992 136.399 38.2998 186.6 -13.6006l19.7002 -20.2998
l19.7002 20.2998c50.2998 51.9004 131.8 60.2998 186.6 13.6006z" />
    <glyph glyph-name="star" unicode="&#xf005;" horiz-adv-x="576" 
d="M259.3 430.2c11.7998 23.8994 45.7002 23.5996 57.4004 0l65.2998 -132.4l146.1 -21.2998c26.2002 -3.7998 36.7002 -36.0996 17.7002 -54.5996l-105.7 -103l25 -145.5c4.5 -26.3008 -23.1992 -45.9004 -46.3994 -33.7002l-130.7 68.7002l-130.7 -68.7002
c-23.2002 -12.2998 -50.8994 7.39941 -46.3994 33.7002l25 145.5l-105.7 103c-19 18.5 -8.5 50.7998 17.7002 54.5996l146.1 21.2998z" />
    <glyph glyph-name="user" unicode="&#xf007;" horiz-adv-x="448" 
d="M224 192c-70.7002 0 -128 57.2998 -128 128s57.2998 128 128 128s128 -57.2998 128 -128s-57.2998 -128 -128 -128zM313.6 160c74.2002 0 134.4 -60.2002 134.4 -134.4v-41.5996c0 -26.5 -21.5 -48 -48 -48h-352c-26.5 0 -48 21.5 -48 48v41.5996
c0 74.2002 60.2002 134.4 134.4 134.4h16.6992c22.3008 -10.2002 46.9004 -16 72.9004 -16s50.7002 5.7998 72.9004 16h16.6992z" />
    <glyph glyph-name="film" unicode="&#xf008;" 
d="M488 384c13.2998 0 24 -10.7002 24 -24v-336c0 -13.2998 -10.7002 -24 -24 -24h-8v20c0 6.59961 -5.40039 12 -12 12h-40c-6.59961 0 -12 -5.40039 -12 -12v-20h-320v20c0 6.59961 -5.40039 12 -12 12h-40c-6.59961 0 -12 -5.40039 -12 -12v-20h-8
c-13.2998 0 -24 10.7002 -24 24v336c0 13.2998 10.7002 24 24 24h8v-20c0 -6.59961 5.40039 -12 12 -12h40c6.59961 0 12 5.40039 12 12v20h320v-20c0 -6.59961 5.40039 -12 12 -12h40c6.59961 0 12 5.40039 12 12v20h8zM96 76v40c0 6.59961 -5.40039 12 -12 12h-40
c-6.59961 0 -12 -5.40039 -12 -12v-40c0 -6.59961 5.40039 -12 12 -12h40c6.59961 0 12 5.40039 12 12zM96 172v40c0 6.59961 -5.40039 12 -12 12h-40c-6.59961 0 -12 -5.40039 -12 -12v-40c0 -6.59961 5.40039 -12 12 -12h40c6.59961 0 12 5.40039 12 12zM96 268v40
c0 6.59961 -5.40039 12 -12 12h-40c-6.59961 0 -12 -5.40039 -12 -12v-40c0 -6.59961 5.40039 -12 12 -12h40c6.59961 0 12 5.40039 12 12zM368 60v96c0 6.59961 -5.40039 12 -12 12h-200c-6.59961 0 -12 -5.40039 -12 -12v-96c0 -6.59961 5.40039 -12 12 -12h200
c6.59961 0 12 5.40039 12 12zM368 228v96c0 6.59961 -5.40039 12 -12 12h-200c-6.59961 0 -12 -5.40039 -12 -12v-96c0 -6.59961 5.40039 -12 12 -12h200c6.59961 0 12 5.40039 12 12zM480 76v40c0 6.59961 -5.40039 12 -12 12h-40c-6.59961 0 -12 -5.40039 -12 -12v-40
c0 -6.59961 5.40039 -12 12 -12h40c6.59961 0 12 5.40039 12 12zM480 172v40c0 6.59961 -5.40039 12 -12 12h-40c-6.59961 0 -12 -5.40039 -12 -12v-40c0 -6.59961 5.40039 -12 12 -12h40c6.59961 0 12 5.40039 12 12zM480 268v40c0 6.59961 -5.40039 12 -12 12h-40
c-6.59961 0 -12 -5.40039 -12 -12v-40c0 -6.59961 5.40039 -12 12 -12h40c6.59961 0 12 5.40039 12 12z" />
    <glyph glyph-name="th-large" unicode="&#xf009;" 
d="M296 416h192c13.2549 0 24 -10.7451 24 -24v-160c0 -13.2549 -10.7451 -24 -24 -24h-192c-13.2549 0 -24 10.7451 -24 24v160c0 13.2549 10.7451 24 24 24zM216 416c13.2549 0 24 -10.7451 24 -24v-160c0 -13.2549 -10.7451 -24 -24 -24h-192
c-13.2549 0 -24 10.7451 -24 24v160c0 13.2549 10.7451 24 24 24h192zM0 152c0 13.2549 10.7451 24 24 24h192c13.2549 0 24 -10.7451 24 -24v-160c0 -13.2549 -10.7451 -24 -24 -24h-192c-13.2549 0 -24 10.7451 -24 24v160zM296 -32c-13.2549 0 -24 10.7451 -24 24v160
c0 13.2549 10.7451 24 24 24h192c13.2549 0 24 -10.7451 24 -24v-160c0 -13.2549 -10.7451 -24 -24 -24h-192z" />
    <glyph glyph-name="th" unicode="&#xf00a;" 
d="M149.333 392v-80c0 -13.2549 -10.7451 -24 -24 -24h-101.333c-13.2549 0 -24 10.7451 -24 24v80c0 13.2549 10.7451 24 24 24h101.333c13.2549 0 24 -10.7451 24 -24zM330.667 152c0 -13.2549 -10.7451 -24 -24.001 -24h-101.333c-13.2549 0 -24 10.7451 -24 24v80
c0 13.2549 10.7451 24 24 24h101.334c13.2549 0 24 -10.7451 24 -24v-80zM362.667 392c0 13.2549 10.7451 24 24 24h101.333c13.2549 0 24 -10.7451 24 -24v-80c0 -13.2549 -10.7451 -24 -24 -24h-101.333c-13.2549 0 -24 10.7451 -24 24v80zM330.667 312
c0 -13.2549 -10.7451 -24 -24.001 -24h-101.333c-13.2549 0 -24 10.7451 -24 24v80c0 13.2549 10.7451 24 24 24h101.334c13.2549 0 24 -10.7451 24 -24v-80zM125.333 256c13.2549 0 24 -10.7451 24 -24v-80c0 -13.2549 -10.7451 -24 -24 -24h-101.333
c-13.2549 0 -24 10.7451 -24 24v80c0 13.2549 10.7451 24 24 24h101.333zM0 72c0 13.2549 10.7451 24 24 24h101.333c13.2549 0 24 -10.7451 24 -24v-80c0 -13.2549 -10.7451 -24 -24 -24h-101.333c-13.2549 0 -24 10.7451 -24 24v80zM386.667 128
c-13.2549 0 -24 10.7451 -24 24v80c0 13.2549 10.7451 24 24 24h101.333c13.2549 0 24 -10.7451 24 -24v-80c0 -13.2549 -10.7451 -24 -24 -24h-101.333zM386.667 -32c-13.2549 0 -24 10.7451 -24 24v80c0 13.2549 10.7451 24 24 24h101.333c13.2549 0 24 -10.7451 24 -24
v-80c0 -13.2549 -10.7451 -24 -24 -24h-101.333zM181.333 72c0 13.2549 10.7451 24 24 24h101.333c13.2549 0 24 -10.7451 24 -24v-80c0 -13.2549 -10.7451 -24 -24 -24h-101.333c-13.2549 0 -24 10.7451 -24 24v80z" />
    <glyph glyph-name="th-list" unicode="&#xf00b;" 
d="M149.333 232v-80c0 -13.2549 -10.7451 -24 -24 -24h-101.333c-13.2549 0 -24 10.7451 -24 24v80c0 13.2549 10.7451 24 24 24h101.333c13.2549 0 24 -10.7451 24 -24zM0 72c0 13.2549 10.7451 24 24 24h101.333c13.2549 0 24 -10.7451 24 -24v-80
c0 -13.2549 -10.7451 -24 -24 -24h-101.333c-13.2549 0 -24 10.7451 -24 24v80zM125.333 416c13.2549 0 24 -10.7451 24 -24v-80c0 -13.2549 -10.7451 -24 -24 -24h-101.333c-13.2549 0 -24 10.7451 -24 24v80c0 13.2549 10.7451 24 24 24h101.333zM205.333 -32
c-13.2549 0 -24 10.7451 -24 24v80c0 13.2549 10.7451 24 24 24h282.667c13.2549 0 24 -10.7451 24 -24v-80c0 -13.2549 -10.7451 -24 -24 -24h-282.667zM181.333 392c0 13.2549 10.7451 24 24 24h282.667c13.2549 0 24 -10.7451 24 -24v-80
c0 -13.2549 -10.7451 -24 -24 -24h-282.667c-13.2549 0 -24 10.7451 -24 24v80zM205.333 128c-13.2549 0 -24 10.7451 -24 24v80c0 13.2549 10.7451 24 24 24h282.667c13.2549 0 24 -10.7451 24 -24v-80c0 -13.2549 -10.7451 -24 -24 -24h-282.667z" />
    <glyph glyph-name="check" unicode="&#xf00c;" 
d="M173.898 8.5957l-166.4 166.4c-9.99707 9.99707 -9.99707 26.2061 0 36.2041l36.2031 36.2041c9.99707 9.99805 26.207 9.99805 36.2041 0l112.095 -112.095l240.095 240.095c9.99707 9.99707 26.207 9.99707 36.2041 0l36.2031 -36.2041
c9.99707 -9.99707 9.99707 -26.2061 0 -36.2041l-294.4 -294.401c-9.99805 -9.99707 -26.207 -9.99707 -36.2031 0.000976562z" />
    <glyph glyph-name="times" unicode="&#xf00d;" horiz-adv-x="352" 
d="M242.72 192l100.07 -100.07c12.2803 -12.29 12.2803 -32.1992 0 -44.4795l-22.2402 -22.2402c-12.2803 -12.2803 -32.2002 -12.2803 -44.4795 0l-100.07 100.07l-100.07 -100.07c-12.2793 -12.2803 -32.1992 -12.2803 -44.4795 0l-22.2402 22.2402
c-12.2803 12.29 -12.2803 32.2002 0 44.4795l100.07 100.07l-100.07 100.07c-12.2803 12.29 -12.2803 32.1992 0 44.4795l22.2402 22.2402c12.29 12.2803 32.2002 12.2803 44.4795 0l100.07 -100.07l100.07 100.07c12.29 12.2803 32.1992 12.2803 44.4795 0
l22.2402 -22.2402c12.2803 -12.29 12.2803 -32.2002 0 -44.4795z" />
    <glyph glyph-name="search-plus" unicode="&#xf00e;" 
d="M304 256v-32c0 -6.59961 -5.40039 -12 -12 -12h-56v-56c0 -6.59961 -5.40039 -12 -12 -12h-32c-6.59961 0 -12 5.40039 -12 12v56h-56c-6.59961 0 -12 5.40039 -12 12v32c0 6.59961 5.40039 12 12 12h56v56c0 6.59961 5.40039 12 12 12h32c6.59961 0 12 -5.40039 12 -12
v-56h56c6.59961 0 12 -5.40039 12 -12zM505 -28.7002l-28.2998 -28.2998c-9.40039 -9.40039 -24.6006 -9.40039 -33.9004 0l-99.7998 99.7002c-4.5 4.5 -7 10.5996 -7 17v16.2998c-35.2998 -27.5996 -79.7002 -44 -128 -44c-114.9 0 -208 93.0996 -208 208
s93.0996 208 208 208s208 -93.0996 208 -208c0 -48.2998 -16.4004 -92.7002 -44 -128h16.2998c6.40039 0 12.5 -2.5 17 -7l99.7002 -99.7002c9.2998 -9.39941 9.2998 -24.5996 0 -34zM344 240c0 75.2002 -60.7998 136 -136 136s-136 -60.7998 -136 -136
s60.7998 -136 136 -136s136 60.7998 136 136z" />
    <glyph glyph-name="search-minus" unicode="&#xf010;" 
d="M304 256v-32c0 -6.59961 -5.40039 -12 -12 -12h-168c-6.59961 0 -12 5.40039 -12 12v32c0 6.59961 5.40039 12 12 12h168c6.59961 0 12 -5.40039 12 -12zM505 -28.7002l-28.2998 -28.2998c-9.40039 -9.40039 -24.6006 -9.40039 -33.9004 0l-99.7998 99.7002
c-4.5 4.5 -7 10.5996 -7 17v16.2998c-35.2998 -27.5996 -79.7002 -44 -128 -44c-114.9 0 -208 93.0996 -208 208s93.0996 208 208 208s208 -93.0996 208 -208c0 -48.2998 -16.4004 -92.7002 -44 -128h16.2998c6.40039 0 12.5 -2.5 17 -7l99.7002 -99.7002
c9.2998 -9.39941 9.2998 -24.5996 0 -34zM344 240c0 75.2002 -60.7998 136 -136 136s-136 -60.7998 -136 -136s60.7998 -136 136 -136s136 60.7998 136 136z" />
    <glyph glyph-name="power-off" unicode="&#xf011;" 
d="M400 393.9c63 -45 104 -118.601 104 -201.9c0 -136.8 -110.8 -247.7 -247.5 -248c-136.5 -0.299805 -248.3 111 -248.5 247.6c-0.0996094 83.3008 40.9004 157.101 103.8 202.2c11.7002 8.2998 28 4.7998 35 -7.7002l15.7998 -28.0996
c5.90039 -10.5 3.10059 -23.7998 -6.59961 -31c-41.5 -30.7998 -68 -79.5996 -68 -134.9c-0.0996094 -92.2998 74.5 -168.1 168 -168.1c91.5996 0 168.6 74.2002 168 169.1c-0.299805 51.8008 -24.7002 101.801 -68.0996 134c-9.7002 7.2002 -12.4004 20.5 -6.5 30.9004
l15.7998 28.0996c7 12.4004 23.2002 16.1006 34.7998 7.80078zM296 184c0 -13.2998 -10.7002 -24 -24 -24h-32c-13.2998 0 -24 10.7002 -24 24v240c0 13.2998 10.7002 24 24 24h32c13.2998 0 24 -10.7002 24 -24v-240z" />
    <glyph glyph-name="signal" unicode="&#xf012;" horiz-adv-x="640" 
d="M216 160c8.83984 0 16 -7.16016 16 -16v-192c0 -8.83984 -7.16016 -16 -16 -16h-48c-8.83984 0 -16 7.16016 -16 16v192c0 8.83984 7.16016 16 16 16h48zM88 64c8.83984 0 16 -7.16016 16 -16v-96c0 -8.83984 -7.16016 -16 -16 -16h-48c-8.83984 0 -16 7.16016 -16 16v96
c0 8.83984 7.16016 16 16 16h48zM344 256c8.83984 0 16 -7.16016 16 -16v-288c0 -8.83984 -7.16016 -16 -16 -16h-48c-8.83984 0 -16 7.16016 -16 16v288c0 8.83984 7.16016 16 16 16h48zM472 352c8.83984 0 16 -7.16016 16 -16v-384c0 -8.83984 -7.16016 -16 -16 -16h-48
c-8.83984 0 -16 7.16016 -16 16v384c0 8.83984 7.16016 16 16 16h48zM600 448c8.83984 0 16 -7.16016 16 -16v-480c0 -8.83984 -7.16016 -16 -16 -16h-48c-8.83984 0 -16 7.16016 -16 16v480c0 8.83984 7.16016 16 16 16h48z" />
    <glyph glyph-name="cog" unicode="&#xf013;" 
d="M487.4 132.3c4.89941 -2.7998 7.09961 -8.59961 5.59961 -14.0996c-11.0996 -35.7002 -30 -67.9004 -54.7002 -94.6006c-3.7998 -4.19922 -9.89941 -5.09961 -14.7998 -2.2998l-42.5996 24.6006c-18 -15.3008 -38.6006 -27.2002 -60.8008 -35.1006v-49.2002
c0 -5.59961 -3.89941 -10.5 -9.39941 -11.6992c-34.9004 -7.80078 -72.5 -8.2002 -109.2 0c-5.5 1.19922 -9.40039 6.09961 -9.40039 11.6992v49.2002c-22.2998 7.7998 -42.8994 19.7002 -60.7998 35.1006l-42.5996 -24.6006c-4.7998 -2.7998 -11 -1.7998 -14.7998 2.2998
c-24.7002 26.8008 -43.6006 59 -54.7002 94.6006c-1.60059 5.39941 0.599609 11.2002 5.5 14l42.5996 24.5996c-4.2998 23.2002 -4.2998 47 0 70.2002l-42.5996 24.5996c-4.90039 2.80078 -7.2002 8.60059 -5.5 14c11.0996 35.7002 30 67.9004 54.7002 94.6006
c3.7998 4.2002 9.89941 5.09961 14.7998 2.2998l42.5 -24.5996c18 15.2998 38.5996 27.1992 60.7998 35.0996v49.2002c0 5.59961 3.90039 10.5 9.40039 11.7002c34.8994 7.7998 72.5 8.19922 109.199 0c5.5 -1.2002 9.40039 -6.10059 9.40039 -11.7002v-49.1006
c22.2998 -7.7998 42.9004 -19.6992 60.7998 -35.0996l42.6006 24.5996c4.7998 2.80078 11 1.80078 14.7998 -2.2998c24.7002 -26.7998 43.5996 -59 54.7002 -94.5996c1.59961 -5.40039 -0.600586 -11.2002 -5.5 -14l-42.6006 -24.6006
c4.2998 -23.1992 4.2998 -47 0 -70.1992zM256 112c44.0996 0 80 35.9004 80 80s-35.9004 80 -80 80s-80 -35.9004 -80 -80s35.9004 -80 80 -80z" />
    <glyph glyph-name="home" unicode="&#xf015;" horiz-adv-x="576" 
d="M280.37 299.74c2.09082 1.68555 4.76562 2.69434 7.6582 2.69434s5.55078 -1.00879 7.6416 -2.69434l184.33 -151.74v-164c0 -8.83105 -7.16895 -16 -16 -16l-112.02 0.30957c-8.83105 0 -16.001 7.16895 -16.001 15.999c0 0.0175781 0 0.0341797 0.000976562 0.0517578
v95.6396c0 8.83105 -7.16992 16 -16 16h-64c-8.83105 0 -16 -7.16895 -16 -16v-95.71c0 -8.80371 -7.12695 -15.9561 -15.9209 -16l-112.06 -0.290039c-8.83105 0 -16 7.16895 -16 16v163.89zM571.6 196.53c2.70703 -2.20117 4.42578 -5.56152 4.42578 -9.31836
c0 -2.88867 -1.02246 -5.54004 -2.72559 -7.6123l-25.5 -31c-2.20117 -2.66309 -5.53418 -4.35059 -9.25684 -4.35059c-2.90332 0 -5.56641 1.0332 -7.64258 2.75098l-235.23 193.74c-2.09082 1.68555 -4.7666 2.69434 -7.6582 2.69434
c-2.89258 0 -5.55078 -1.00879 -7.6416 -2.69434l-235.22 -193.74c-2.0752 -1.71387 -4.73926 -2.75586 -7.63867 -2.75586c-3.73242 0 -7.07031 1.70898 -9.27148 4.38574l-25.5 31c-1.71875 2.07617 -2.7627 4.74414 -2.7627 7.64648
c0 3.72266 1.69824 7.05176 4.3623 9.25391l253.13 208.47c8.29102 6.82227 18.9668 10.9209 30.5312 10.9209s22.1787 -4.09863 30.4688 -10.9209l89.5303 -73.6602v72.6104c0 6.62305 5.37695 12 12 12h56c6.62305 0 12 -5.37695 12 -12v-138.51z" />
    <glyph glyph-name="clock" unicode="&#xf017;" 
d="M256 440c137 0 248 -111 248 -248s-111 -248 -248 -248s-248 111 -248 248s111 248 248 248zM348.49 127c2.19531 2.73926 3.52637 6.21973 3.52637 10c0 5.05566 -2.35059 9.56738 -6.0166 12.5l-58 42.5v144c0 8.83105 -7.16895 16 -16 16h-32
c-8.83105 0 -16 -7.16895 -16 -16v-155.55c0 -12.6338 5.8418 -23.8975 15 -31.2305l67 -49.7197v0c2.7373 -2.19043 6.21387 -3.51758 9.98926 -3.51758c5.05566 0 9.56738 2.35059 12.501 6.01758l20 25v0z" />
    <glyph glyph-name="road" unicode="&#xf018;" horiz-adv-x="576" 
d="M573.19 45.3301c9.25977 -21.1904 -5.5 -45.3301 -27.7305 -45.3301h-196.84l-10.3105 97.6797c-0.859375 8.14062 -7.71973 14.3203 -15.9092 14.3203h-68.8008c-8.18945 0 -15.0498 -6.17969 -15.9092 -14.3203l-10.3105 -97.6797h-196.84
c-22.2305 0 -36.9902 24.1396 -27.7402 45.3301l139.79 320c4.96973 11.3799 15.7998 18.6699 27.7305 18.6699h97.5898l-2.4502 -23.1602c-0.5 -4.71973 3.20996 -8.83984 7.95996 -8.83984h29.1602c4.75 0 8.45996 4.12012 7.95996 8.83984l-2.4502 23.1602h97.5898
c11.9199 0 22.75 -7.29004 27.7207 -18.6699zM260.4 312.84l-4.59082 -43.5801c-0.75 -7.08984 4.80078 -13.2598 11.9307 -13.2598h40.54c7.12012 0 12.6797 6.16992 11.9297 13.2598l-4.59961 43.5801c-0.430664 4.07031 -3.87012 7.16016 -7.95996 7.16016h-39.29
c-0.00195312 0 -0.00390625 -0.0078125 -0.00488281 -0.0078125c-4.12891 0 -7.53125 -3.13477 -7.95508 -7.15234zM315.64 144c9.5 0 16.9102 8.23047 15.9102 17.6797l-5.06934 48c-0.860352 8.14062 -7.7207 14.3203 -15.9102 14.3203h-45.1504
c-8.18945 0 -15.0498 -6.17969 -15.9102 -14.3203l-5.06934 -48c-1 -9.44922 6.40918 -17.6797 15.9092 -17.6797h55.29z" />
    <glyph glyph-name="download" unicode="&#xf019;" 
d="M216 448h80c13.2998 0 24 -10.7002 24 -24v-168h87.7002c17.7998 0 26.7002 -21.5 14.0996 -34.0996l-152.1 -152.2c-7.5 -7.5 -19.7998 -7.5 -27.2998 0l-152.301 152.2c-12.5996 12.5996 -3.69922 34.0996 14.1006 34.0996h87.7998v168c0 13.2998 10.7002 24 24 24z
M512 72v-112c0 -13.2998 -10.7002 -24 -24 -24h-464c-13.2998 0 -24 10.7002 -24 24v112c0 13.2998 10.7002 24 24 24h146.7l49 -49c20.0996 -20.0996 52.5 -20.0996 72.5996 0l49 49h146.7c13.2998 0 24 -10.7002 24 -24zM388 -16c0 11 -9 20 -20 20s-20 -9 -20 -20
s9 -20 20 -20s20 9 20 20zM452 -16c0 11 -9 20 -20 20s-20 -9 -20 -20s9 -20 20 -20s20 9 20 20z" />
    <glyph glyph-name="inbox" unicode="&#xf01c;" horiz-adv-x="576" 
d="M567.938 204.092c5.07422 -7.61035 8.06152 -16.7998 8.06152 -26.625v-129.467c0 -26.5098 -21.4902 -48 -48 -48h-480c-26.5098 0 -48 21.4902 -48 48v129.467c0 9.8252 2.9873 19.0146 8.06152 26.625l105.689 158.534c8.60742 12.9102 23.2725 21.374 39.9385 21.374
h268.621c16.667 0 31.332 -8.46387 39.9395 -21.374zM162.252 320l-85.334 -128h123.082l32 -64h112l32 64h123.082l-85.333 128h-251.497z" />
    <glyph glyph-name="redo" unicode="&#xf01e;" 
d="M500.33 448c6.62305 0 12 -5.37695 12 -12v-200.34c0 -6.62305 -5.37695 -12 -12 -12h-200.33c-6.62305 0 -12 5.37695 -12 12v47.4102c0 0.00390625 -0.00878906 0.00878906 -0.00878906 0.0136719c0 6.62305 5.37695 12 12 12
c0.194336 0 0.386719 -0.00488281 0.579102 -0.0136719l101.529 -4.87012c-31.6084 47.0322 -85.1172 77.8594 -145.992 77.8594c-97.1367 0 -176 -78.8633 -176 -176s78.8633 -176 176 -176c44.502 0 85.168 16.5518 116.173 43.8301
c2.10938 1.84375 4.87793 2.96582 7.89746 2.96582c3.31055 0 6.31055 -1.34375 8.48242 -3.51562l34 -34c2.17383 -2.17188 3.52246 -5.17285 3.52246 -8.48633c0 -3.55176 -1.54688 -6.74512 -4.00293 -8.94336c-43.8477 -39.6924 -102.079 -63.9102 -165.824 -63.9102
h-0.355469c-136.9 0 -247.9 110.93 -248 247.81c-0.0996094 136.66 111.34 248.19 248 248.19c0.0927734 0 0.116211 0.140625 0.208984 0.140625c75.5918 0 143.312 -33.9727 188.711 -87.4707l-4 82.7598c-0.00878906 0.192383 -0.0136719 0.375977 -0.0136719 0.570312
c0 6.62305 5.37695 12 12 12h0.0136719h47.4102z" />
    <glyph glyph-name="sync" unicode="&#xf021;" 
d="M440.65 435.43c-0.00976562 0.192383 -0.0136719 0.375977 -0.0136719 0.570312c0 6.62109 5.37305 11.9961 11.9932 12h47.3701c6.62305 0 12 -5.37695 12 -12v-200.35c0 -6.62305 -5.37695 -12 -12 -12h-200.22c-6.62305 0 -12 5.37695 -12 12v47.4092
c0 0.00488281 -0.00878906 0.00976562 -0.00878906 0.0136719c0 6.62305 5.37695 12 12 12c0.194336 0 0.386719 -0.00390625 0.578125 -0.0136719l101.46 -4.85938c-31.5938 46.9941 -85.1406 77.6738 -145.973 77.6738c-82.8662 0 -152.428 -57.4229 -171.027 -134.614
c-1.24219 -5.29688 -5.99707 -9.25391 -11.6699 -9.25977h-49.0498c-6.62305 0 -12 5.36719 -12 11.9893c0 0.748047 0.0693359 1.48047 0.200195 2.19043c21.6201 114.9 122.44 201.82 243.54 201.82c0.0966797 0 0.123047 0.141602 0.219727 0.141602
c75.5615 0 143.248 -33.9814 188.601 -87.4814zM255.83 16c0.015625 0 0.0185547 0.0898438 0.0332031 0.0898438c82.8701 0 152.43 57.4434 170.997 134.65c1.24219 5.29688 5.99707 9.25391 11.6699 9.25977h49.0498c6.62305 0 12 -5.36719 12 -11.9893
c0 -0.748047 -0.0693359 -1.48047 -0.200195 -2.19043c-21.6201 -114.9 -122.439 -201.82 -243.55 -201.82c-0.0800781 0 -0.0908203 -0.140625 -0.170898 -0.140625c-75.4814 0 -143.106 33.9082 -188.459 87.3105l4.14941 -82.5703
c0.0107422 -0.201172 0.015625 -0.395508 0.015625 -0.599609c0 -6.62305 -5.37695 -12 -12 -12h-0.015625h-47.3496c-6.62305 0 -12 5.37695 -12 12v200.33c0 6.62305 5.37695 12 12 12h200.2c6.62305 0 12 -5.37695 12 -12v-47.4004
c0 -0.00390625 0.0078125 -0.00878906 0.0078125 -0.0136719c0 -6.62305 -5.37695 -12 -12 -12c-0.193359 0 -0.386719 0.00488281 -0.578125 0.0136719l-101.8 4.87012c31.5254 -47.0088 85.0449 -77.7998 145.847 -77.7998h0.15332z" />
    <glyph glyph-name="list-alt" unicode="&#xf022;" 
d="M464 -32h-416c-26.5098 0 -48 21.4902 -48 48v352c0 26.5098 21.4902 48 48 48h416c26.5098 0 48 -21.4902 48 -48v-352c0 -26.5098 -21.4902 -48 -48 -48zM128 328c-22.0908 0 -40 -17.9092 -40 -40s17.9092 -40 40 -40s40 17.9092 40 40s-17.9092 40 -40 40zM128 232
c-22.0908 0 -40 -17.9092 -40 -40s17.9092 -40 40 -40s40 17.9092 40 40s-17.9092 40 -40 40zM128 136c-22.0908 0 -40 -17.9092 -40 -40s17.9092 -40 40 -40s40 17.9092 40 40s-17.9092 40 -40 40zM416 272v32c0 6.62695 -5.37305 12 -12 12h-200
c-6.62695 0 -12 -5.37305 -12 -12v-32c0 -6.62695 5.37305 -12 12 -12h200c6.62695 0 12 5.37305 12 12zM416 176v32c0 6.62695 -5.37305 12 -12 12h-200c-6.62695 0 -12 -5.37305 -12 -12v-32c0 -6.62695 5.37305 -12 12 -12h200c6.62695 0 12 5.37305 12 12zM416 80v32
c0 6.62695 -5.37305 12 -12 12h-200c-6.62695 0 -12 -5.37305 -12 -12v-32c0 -6.62695 5.37305 -12 12 -12h200c6.62695 0 12 5.37305 12 12z" />
    <glyph glyph-name="lock" unicode="&#xf023;" horiz-adv-x="448" 
d="M400 224c26.5 0 48 -21.5 48 -48v-192c0 -26.5 -21.5 -48 -48 -48h-352c-26.5 0 -48 21.5 -48 48v192c0 26.5 21.5 48 48 48h24v72c0 83.7998 68.2002 152 152 152s152 -68.2002 152 -152v-72h24zM296 224v72c0 39.7002 -32.2998 72 -72 72s-72 -32.2998 -72 -72v-72h144
z" />
    <glyph glyph-name="flag" unicode="&#xf024;" 
d="M349.565 349.217c40.4951 0 82.6113 15.9062 116.949 31.8545c21.2168 9.85352 45.4854 -5.62305 45.4854 -29.0166v-243.1c0 -10.5264 -5.16016 -20.4072 -13.8428 -26.3584c-35.8379 -24.5635 -74.3359 -40.8574 -122.505 -40.8574
c-67.373 0 -111.629 34.7832 -165.218 34.7832c-50.8525 0 -86.124 -10.0586 -114.435 -22.1221v-94.4004c0 -13.2549 -10.7451 -24 -24 -24h-16c-13.2549 0 -24 10.7451 -24 24v386.055c-14.5029 10.1201 -24 26.9189 -24 45.9453
c0 31.7041 26.3447 57.2539 58.3379 55.9521c28.4678 -1.1582 51.7793 -23.9668 53.5508 -52.4033c0.0761719 -1.19141 0.0927734 -2.37305 0.0927734 -3.58301c0 -7.03711 -1.30176 -13.7734 -3.67871 -19.9785c20.7363 7.62891 43.0898 12.0127 68.0449 12.0127
c67.373 0 111.63 -34.7832 165.218 -34.7832z" />
    <glyph glyph-name="headphones" unicode="&#xf025;" 
d="M256 416c141.504 0 256 -114.521 256 -256v-48c0 -12.5312 -7.1875 -23.3711 -17.6904 -28.6221l-14.3818 -7.19141c-2.01074 -60.0889 -51.3486 -108.187 -111.928 -108.187h-24c-13.2549 0 -24 10.7451 -24 24v176c0 13.2549 10.7451 24 24 24h24
c31.3418 0 59.6709 -12.8789 80 -33.627v1.62695c0 105.869 -86.1309 192 -192 192s-192 -86.1309 -192 -192v-1.62695c20.3291 20.748 48.6582 33.627 80 33.627h24c13.2549 0 24 -10.7451 24 -24v-176c0 -13.2549 -10.7451 -24 -24 -24h-24
c-60.5791 0 -109.917 48.0967 -111.928 108.187l-14.3828 7.19141c-10.502 5.25098 -17.6895 16.0908 -17.6895 28.6221v48c0 141.504 114.52 256 256 256z" />
    <glyph glyph-name="volume-off" unicode="&#xf026;" horiz-adv-x="256" 
d="M215 377c15 15 41 4.46973 41 -17v-336c0 -21.4697 -26 -32 -41 -17l-88.9404 89h-102.06c-13.2461 0 -24 10.7539 -24 24v144c0 13.2461 10.7539 24 24 24h102z" />
    <glyph glyph-name="volume-down" unicode="&#xf027;" horiz-adv-x="384" 
d="M215.03 375.96c15.0098 15 40.9697 4.49023 40.9697 -16.9795v-335.961c0 -21.4395 -25.9404 -32 -40.9697 -16.9697l-88.9707 88.9502h-102.06c-13.2598 0 -24 10.75 -24 24v144c0 13.2598 10.7402 24 24 24h102.06zM338.23 267.88
c28.2393 -15.5498 45.7793 -44.9902 45.7793 -76.8701s-17.54 -61.3301 -45.7695 -76.8799c-11.5605 -6.34961 -26.1807 -2.20996 -32.6104 9.4502c-6.38965 11.6104 -2.16016 26.2002 9.4502 32.6104c12.9004 7.08984 20.9199 20.4297 20.9199 34.8096
s-8.01953 27.7197 -20.9297 34.8203c-11.6104 6.41016 -15.8398 21 -9.4502 32.6094c6.41992 11.6104 21.0303 15.7803 32.6104 9.4502z" />
    <glyph glyph-name="volume-up" unicode="&#xf028;" horiz-adv-x="576" 
d="M215.03 376.95c15.0098 15.0098 40.9697 4.49023 40.9697 -16.9697v-335.961c0 -21.4395 -25.9404 -32 -40.9697 -16.9697l-88.9707 88.9502h-102.06c-13.2598 0 -24 10.75 -24 24v144c0 13.2598 10.7402 24 24 24h102.06zM448.35 428.03
c79.9199 -52.46 127.65 -140.7 127.65 -236.03s-47.7305 -183.58 -127.65 -236.04c-11.5801 -7.61035 -26.4697 -3.75977 -33.5098 6.9502c-7.33984 11.1602 -4.21973 26.1797 6.9502 33.5c66.2695 43.4902 105.82 116.6 105.82 195.58
c0 78.9795 -39.5508 152.09 -105.82 195.58c-11.1699 7.33008 -14.29 22.3398 -6.9502 33.5098c7.33008 11.1895 22.3398 14.2803 33.5098 6.9502zM480 192c0 -63.54 -32.0596 -121.94 -85.7695 -156.24c-12 -7.67969 -26.6104 -2.89941 -33.1201 7.45996
c-7.09082 11.29 -3.78027 26.2207 7.40918 33.3604c39.75 25.3896 63.4805 68.5303 63.4805 115.42s-23.7305 90.0303 -63.4805 115.42c-11.1895 7.15039 -14.5 22.0801 -7.40918 33.3604c7.08984 11.2793 21.9297 14.5996 33.1201 7.45996
c53.71 -34.2998 85.7695 -92.71 85.7695 -156.24zM338.23 268.87c28.2393 -15.54 45.7793 -44.9805 45.7793 -76.8604s-17.54 -61.3301 -45.7695 -76.8799c-11.5605 -6.34961 -26.1807 -2.20996 -32.6104 9.4502c-6.38965 11.6104 -2.16016 26.2002 9.4502 32.6104
c12.9004 7.08984 20.9199 20.4297 20.9199 34.8096c0 14.3701 -8.01953 27.7197 -20.9297 34.8096c-11.6104 6.41016 -15.8398 21 -9.4502 32.6104c6.41992 11.6104 21.0303 15.7803 32.6104 9.4502z" />
    <glyph glyph-name="qrcode" unicode="&#xf029;" horiz-adv-x="448" 
d="M0 224v192h192v-192h-192zM64 352v-64h64v64h-64zM256 416h192v-192h-192v192zM384 288v64h-64v-64h64zM0 -32v192h192v-192h-192zM64 96v-64h64v64h-64zM416 160h32v-128h-96v32h-32v-96h-64v192h96v-32h64v32zM416 0h32v-32h-32v32zM352 0h32v-32h-32v32z" />
    <glyph glyph-name="barcode" unicode="&#xf02a;" 
d="M0 0v384h18v-384h-18zM26.8574 0.273438v383.727h9.14258v-383.727h-9.14258zM54 0.273438v383.727h8.85742v-383.727h-8.85742zM98.8574 0.273438v383.727h8.85645v-383.727h-8.85645zM134.857 0.273438v383.727h17.7139v-383.727h-17.7139zM179.714 0.273438v383.727
h8.85742v-383.727h-8.85742zM197.714 0.273438v383.727h8.85742v-383.727h-8.85742zM215.714 0.273438v383.727h8.85742v-383.727h-8.85742zM251.429 0.273438v383.727h18v-383.727h-18zM296.286 0.273438v383.727h18v-383.727h-18zM332.285 0.273438v383.727h18.001
v-383.727h-18.001zM368.286 0.273438v383.727h18.001v-383.727h-18.001zM395.143 0.273438v383.727h18v-383.727h-18zM440.286 0.273438v383.727h26.8564v-383.727h-26.8564zM476 0.273438v383.727h9.14258v-383.727h-9.14258zM494 0v384h18v-384h-18z" />
    <glyph glyph-name="tag" unicode="&#xf02b;" 
d="M0 195.882v204.118c0 26.5098 21.4902 48 48 48h204.118c13.2461 0 25.252 -5.37012 33.9404 -14.0586l211.883 -211.883c18.7441 -18.7441 18.7441 -49.1367 0 -67.8818l-204.118 -204.118c-18.7451 -18.7441 -49.1377 -18.7441 -67.8818 0l-211.883 211.883
c-8.68848 8.68848 -14.0586 20.6943 -14.0586 33.9404zM112 384c-26.5098 0 -48 -21.4902 -48 -48s21.4902 -48 48 -48s48 21.4902 48 48s-21.4902 48 -48 48z" />
    <glyph glyph-name="tags" unicode="&#xf02c;" horiz-adv-x="640" 
d="M497.941 222.059c18.7441 -18.7441 18.7441 -49.1367 0 -67.8818l-204.118 -204.118c-18.7461 -18.7451 -49.1387 -18.7441 -67.8818 0l-211.883 211.883c-8.68848 8.68848 -14.0586 20.6943 -14.0586 33.9404v204.118c0 26.5098 21.4902 48 48 48h204.118
c13.2461 0 25.252 -5.37012 33.9404 -14.0586zM112 288c26.5098 0 48 21.4902 48 48s-21.4902 48 -48 48s-48 -21.4902 -48 -48s21.4902 -48 48 -48zM625.941 154.177l-204.118 -204.118c-18.7451 -18.7441 -49.1377 -18.7441 -67.8818 0l-0.360352 0.360352
l174.059 174.059c16.999 16.999 26.3604 39.6006 26.3604 63.6406s-9.3623 46.6406 -26.3604 63.6396l-196.242 196.242h48.7207c13.2461 0 25.252 -5.37012 33.9404 -14.0586l211.883 -211.883c18.7441 -18.7441 18.7441 -49.1367 0 -67.8818z" />
    <glyph glyph-name="book" unicode="&#xf02d;" horiz-adv-x="448" 
d="M448 88c0 -7.5 -3.5 -14.2998 -8.90039 -18.5996c-4.19922 -15.4004 -4.19922 -59.3008 0 -74.7002c5.40039 -4.40039 8.90039 -11.2002 8.90039 -18.7002v-16c0 -13.2998 -10.7002 -24 -24 -24h-328c-53 0 -96 43 -96 96v320c0 53 43 96 96 96h328
c13.2998 0 24 -10.7002 24 -24v-336zM128 314v-20c0 -3.2998 2.7002 -6 6 -6h212c3.2998 0 6 2.7002 6 6v20c0 3.2998 -2.7002 6 -6 6h-212c-3.2998 0 -6 -2.7002 -6 -6zM128 250v-20c0 -3.2998 2.7002 -6 6 -6h212c3.2998 0 6 2.7002 6 6v20c0 3.2998 -2.7002 6 -6 6h-212
c-3.2998 0 -6 -2.7002 -6 -6zM381.4 0c-1.90039 17.0996 -1.90039 46.9004 0 64h-285.4c-17.5996 0 -32 -14.4004 -32 -32c0 -17.7002 14.2998 -32 32 -32h285.4z" />
    <glyph glyph-name="bookmark" unicode="&#xf02e;" horiz-adv-x="384" 
d="M0 -64v464c0 26.5098 21.4902 48 48 48h288c26.5098 0 48 -21.4902 48 -48v-464l-192 112z" />
    <glyph glyph-name="print" unicode="&#xf02f;" 
d="M448 256c35.3496 0 64 -28.6504 64 -64v-112c0 -8.83984 -7.16016 -16 -16 -16h-48v-96c0 -17.6699 -14.3301 -32 -32 -32h-320c-17.6699 0 -32 14.3301 -32 32v96h-48c-8.83984 0 -16 7.16016 -16 16v112c0 35.3496 28.6504 64 64 64v160c0 17.6699 14.3301 32 32 32
h274.74c8.49023 0 16.6299 -3.37012 22.6299 -9.37012l45.2598 -45.25c6 -6.00977 9.37012 -14.1396 9.37012 -22.6299v-114.75zM384 0v96h-256v-96h256zM384 224v96h-48c-8.83984 0 -16 7.16016 -16 16v48h-192v-160h256zM432 152c13.25 0 24 10.75 24 24
c0 13.2598 -10.75 24 -24 24s-24 -10.7402 -24 -24c0 -13.25 10.75 -24 24 -24z" />
    <glyph glyph-name="camera" unicode="&#xf030;" 
d="M512 304v-288c0 -26.5 -21.5 -48 -48 -48h-416c-26.5 0 -48 21.5 -48 48v288c0 26.5 21.5 48 48 48h88l12.2998 32.9004c7 18.6992 24.9004 31.0996 44.9004 31.0996h125.5c20 0 37.8994 -12.4004 44.8994 -31.0996l12.4004 -32.9004h88c26.5 0 48 -21.5 48 -48zM376 160
c0 66.2002 -53.7998 120 -120 120s-120 -53.7998 -120 -120s53.7998 -120 120 -120s120 53.7998 120 120zM344 160c0 -48.5 -39.5 -88 -88 -88s-88 39.5 -88 88s39.5 88 88 88s88 -39.5 88 -88z" />
    <glyph glyph-name="font" unicode="&#xf031;" horiz-adv-x="448" 
d="M432 32c8.83105 0 16 -7.16895 16 -16v-32c0 -8.83105 -7.16895 -16 -16 -16h-128c-8.83105 0 -16 7.16895 -16 16v32c0 8.83105 7.16895 16 16 16h19.5801l-23.2998 64h-152.561l-23.2998 -64h19.5801c8.83105 0 16 -7.16895 16 -16v-32
c0 -8.83105 -7.16895 -16 -16 -16h-128c-8.83105 0 -16 7.16895 -16 16v32c0 8.83105 7.16895 16 16 16h23.4102l130.71 362.31c4.29297 12.6133 16.2363 21.6904 30.293 21.6904h0.00683594h47.1602l-0.00292969 0.00683594c14.0576 0 26.0098 -9.08398 30.3027 -21.6973
l130.71 -362.31h23.4102zM176.85 176h94.3008l-47.1504 129.49z" />
    <glyph glyph-name="bold" unicode="&#xf032;" horiz-adv-x="384" 
d="M333.49 210c34.4395 -27.54 55.5693 -71.1504 50.8301 -119.6c-6.86035 -70.6504 -70.2002 -122.4 -141 -122.4h-209.32c-8.83105 0 -16 7.16895 -16 16v48c0 8.83105 7.16895 16 16 16h31.8701v288h-31.8701c-8.83105 0 -16 7.16895 -16 16v48
c0 8.83105 7.16895 16 16 16h199.42c74.5801 0 134.45 -64.4902 127.07 -140.79c-2.43945 -24.5273 -12.1992 -47.1309 -27 -65.21zM145.66 336v-96h87.7598c26.4922 0 48 21.5078 48 48s-21.5078 48 -48 48h-87.7598zM233.42 48c30.9072 0 56 25.0928 56 56
s-25.0928 56 -56 56h-87.7598v-112h87.7598z" />
    <glyph glyph-name="italic" unicode="&#xf033;" horiz-adv-x="320" 
d="M320 400v-32c0 -8.83105 -7.16895 -16 -16 -16h-62.7598l-80 -320h46.7598c8.83105 0 16 -7.16895 16 -16v-32c0 -8.83105 -7.16895 -16 -16 -16h-192c-8.83105 0 -16 7.16895 -16 16v32c0 8.83105 7.16895 16 16 16h62.7598l80 320h-46.7598
c-8.83105 0 -16 7.16895 -16 16v32c0 8.83105 7.16895 16 16 16h192c8.83105 0 16 -7.16895 16 -16z" />
    <glyph glyph-name="text-height" unicode="&#xf034;" horiz-adv-x="576" 
d="M304 416c8.83105 0 16 -7.16895 16 -16v-96c0 -8.83105 -7.16895 -16 -16 -16h-32c-8.83105 0 -16 7.16895 -16 16v32h-56v-304h40c8.83105 0 16 -7.16895 16 -16v-32c0 -8.83105 -7.16895 -16 -16 -16h-160c-8.83105 0 -16 7.16895 -16 16v32
c0 8.83105 7.16895 16 16 16h40v304h-56v-32c0 -8.83105 -7.16895 -16 -16 -16h-32c-8.83105 0 -16 7.16895 -16 16v96c0 8.83105 7.16895 16 16 16h288zM560 80c15.6396 0 20.6396 -18 11.3096 -27.3096l-80 -80c-2.89551 -2.89453 -6.89844 -4.68555 -11.3115 -4.68555
c-4.41406 0 -8.41211 1.79102 -11.3076 4.68555l-80 80c-10.0107 10 -3 27.3096 11.3096 27.3096h48v224h-48c-15.6396 0 -20.6396 18 -11.3096 27.3096l80 80c2.89551 2.89453 6.89844 4.68555 11.3115 4.68555c4.41406 0 8.41211 -1.79102 11.3076 -4.68555l80 -80
c10.0205 -10 3 -27.3096 -11.3096 -27.3096h-48v-224h48z" />
    <glyph glyph-name="text-width" unicode="&#xf035;" horiz-adv-x="448" 
d="M432 416c8.83105 0 16 -7.16895 16 -16v-80c0 -8.83105 -7.16895 -16 -16 -16h-32c-8.83105 0 -16 7.16895 -16 16v16h-120v-112h24c8.83105 0 16 -7.16895 16 -16v-32c0 -8.83105 -7.16895 -16 -16 -16h-128c-8.83105 0 -16 7.16895 -16 16v32
c0 8.83105 7.16895 16 16 16h24v112h-120v-16c0 -8.83105 -7.16895 -16 -16 -16h-32c-8.83105 0 -16 7.16895 -16 16v80c0 8.83105 7.16895 16 16 16h416zM363.31 155.31l80 -80c2.89453 -2.89551 4.68555 -6.89844 4.68555 -11.3115
c0 -4.41406 -1.79102 -8.41211 -4.68555 -11.3076l-80 -80c-10 -10.0205 -27.3096 -3 -27.3096 11.3096v48h-224v-48c0 -15.6396 -18 -20.6396 -27.3096 -11.3096l-80 80c-2.89453 2.89551 -4.68555 6.89844 -4.68555 11.3115c0 4.41406 1.79102 8.41211 4.68555 11.3076
l80 80c10 10.0107 27.3096 3 27.3096 -11.3096v-48h224v48c0 15.6396 18 20.6396 27.3096 11.3096z" />
    <glyph glyph-name="align-left" unicode="&#xf036;" horiz-adv-x="448" 
d="M12.8301 96c-7.07617 0 -12.8301 5.74414 -12.8301 12.8193v0.0107422v38.3398v0.00976562c0 7.07617 5.74414 12.8203 12.8193 12.8203h0.0107422h262.34h0.00976562c7.07617 0 12.8203 -5.74414 12.8203 -12.8193v-0.0107422v-38.3398v-0.00976562
c0 -7.07617 -5.74414 -12.8203 -12.8193 -12.8203h-0.0107422h-262.34zM12.8301 352c-7.07617 0 -12.8301 5.74414 -12.8301 12.8193v0.0107422v38.3398v0.00976562c0 7.07617 5.74414 12.8203 12.8193 12.8203h0.0107422h262.34h0.00976562
c7.07617 0 12.8203 -5.74414 12.8203 -12.8193v-0.0107422v-38.3398v-0.00976562c0 -7.07617 -5.74414 -12.8203 -12.8193 -12.8203h-0.0107422h-262.34zM432 288c8.83105 0 16 -7.16895 16 -16v-32c0 -8.83105 -7.16895 -16 -16 -16h-416c-8.83105 0 -16 7.16895 -16 16v32
c0 8.83105 7.16895 16 16 16h416zM432 32c8.83105 0 16 -7.16895 16 -16v-32c0 -8.83105 -7.16895 -16 -16 -16h-416c-8.83105 0 -16 7.16895 -16 16v32c0 8.83105 7.16895 16 16 16h416z" />
    <glyph glyph-name="align-center" unicode="&#xf037;" horiz-adv-x="448" 
d="M432 288c8.83105 0 16 -7.16895 16 -16v-32c0 -8.83105 -7.16895 -16 -16 -16h-416c-8.83105 0 -16 7.16895 -16 16v32c0 8.83105 7.16895 16 16 16h416zM432 32c8.83105 0 16 -7.16895 16 -16v-32c0 -8.83105 -7.16895 -16 -16 -16h-416c-8.83105 0 -16 7.16895 -16 16
v32c0 8.83105 7.16895 16 16 16h416zM108.1 352c-6.67773 0 -12.0996 5.42188 -12.0996 12.0996v39.8105c0 6.67285 5.41699 12.0898 12.0898 12.0898h0.00976562h231.811c6.67285 0 12.0898 -5.41699 12.0898 -12.0898v-39.8105v-0.00976562
c0 -6.67285 -5.41699 -12.0898 -12.0898 -12.0898h-231.811zM339.91 96h-231.811c-6.67773 0 -12.0996 5.42188 -12.0996 12.0996v39.8105c0 6.67285 5.41699 12.0898 12.0898 12.0898h0.00976562h231.811c6.67285 0 12.0898 -5.41699 12.0898 -12.0898v-39.8105
v-0.00976562c0 -6.67285 -5.41699 -12.0898 -12.0898 -12.0898z" />
    <glyph glyph-name="align-right" unicode="&#xf038;" horiz-adv-x="448" 
d="M16 224c-8.83105 0 -16 7.16895 -16 16v32c0 8.83105 7.16895 16 16 16h416c8.83105 0 16 -7.16895 16 -16v-32c0 -8.83105 -7.16895 -16 -16 -16h-416zM432 32c8.83105 0 16 -7.16895 16 -16v-32c0 -8.83105 -7.16895 -16 -16 -16h-416c-8.83105 0 -16 7.16895 -16 16
v32c0 8.83105 7.16895 16 16 16h416zM435.17 416c7.07617 0 12.8301 -5.74414 12.8301 -12.8193v-0.0107422v-38.3398v-0.00976562c0 -7.07617 -5.74414 -12.8203 -12.8193 -12.8203h-0.0107422h-262.34h-0.00976562c-7.07617 0 -12.8203 5.74414 -12.8203 12.8193
v0.0107422v38.3398v0.00976562c0 7.07617 5.74414 12.8203 12.8193 12.8203h0.0107422h262.34zM435.17 160c7.07617 0 12.8301 -5.74414 12.8301 -12.8193v-0.0107422v-38.3398v-0.00976562c0 -7.07617 -5.74414 -12.8203 -12.8193 -12.8203h-0.0107422h-262.34h-0.00976562
c-7.07617 0 -12.8203 5.74414 -12.8203 12.8193v0.0107422v38.3398v0.00976562c0 7.07617 5.74414 12.8203 12.8193 12.8203h0.0107422h262.34z" />
    <glyph glyph-name="align-justify" unicode="&#xf039;" horiz-adv-x="448" 
d="M432 32c8.83105 0 16 -7.16895 16 -16v-32c0 -8.83105 -7.16895 -16 -16 -16h-416c-8.83105 0 -16 7.16895 -16 16v32c0 8.83105 7.16895 16 16 16h416zM432 160c8.83105 0 16 -7.16895 16 -16v-32c0 -8.83105 -7.16895 -16 -16 -16h-416c-8.83105 0 -16 7.16895 -16 16
v32c0 8.83105 7.16895 16 16 16h416zM432 288c8.83105 0 16 -7.16895 16 -16v-32c0 -8.83105 -7.16895 -16 -16 -16h-416c-8.83105 0 -16 7.16895 -16 16v32c0 8.83105 7.16895 16 16 16h416zM432 416c8.83105 0 16 -7.16895 16 -16v-32c0 -8.83105 -7.16895 -16 -16 -16
h-416c-8.83105 0 -16 7.16895 -16 16v32c0 8.83105 7.16895 16 16 16h416z" />
    <glyph glyph-name="list" unicode="&#xf03a;" 
d="M80 80c8.83105 0 16 -7.16895 16 -16v-64c0 -8.83105 -7.16895 -16 -16 -16h-64c-8.83105 0 -16 7.16895 -16 16v64c0 8.83105 7.16895 16 16 16h64zM80 400c8.83105 0 16 -7.16895 16 -16v-64c0 -8.83105 -7.16895 -16 -16 -16h-64c-8.83105 0 -16 7.16895 -16 16v64
c0 8.83105 7.16895 16 16 16h64zM80 240c8.83105 0 16 -7.16895 16 -16v-64c0 -8.83105 -7.16895 -16 -16 -16h-64c-8.83105 0 -16 7.16895 -16 16v64c0 8.83105 7.16895 16 16 16h64zM496 64c8.83105 0 16 -7.16895 16 -16v-32c0 -8.83105 -7.16895 -16 -16 -16h-320
c-8.83105 0 -16 7.16895 -16 16v32c0 8.83105 7.16895 16 16 16h320zM496 384c8.83105 0 16 -7.16895 16 -16v-32c0 -8.83105 -7.16895 -16 -16 -16h-320c-8.83105 0 -16 7.16895 -16 16v32c0 8.83105 7.16895 16 16 16h320zM496 224c8.83105 0 16 -7.16895 16 -16v-32
c0 -8.83105 -7.16895 -16 -16 -16h-320c-8.83105 0 -16 7.16895 -16 16v32c0 8.83105 7.16895 16 16 16h320z" />
    <glyph glyph-name="outdent" unicode="&#xf03b;" horiz-adv-x="448" 
d="M100.69 84.71l-96 95.9805c-2.89453 2.89551 -4.68555 6.89844 -4.68555 11.3115c0 4.41406 1.79102 8.41211 4.68555 11.3076l96 96c9.97949 10 27.3096 3.01074 27.3096 -11.3096v-191.98c0 -14.2393 -17.3096 -21.3096 -27.3096 -11.3096zM432 32
c8.83105 0 16 -7.16895 16 -16v-32c0 -8.83105 -7.16895 -16 -16 -16h-416c-8.83105 0 -16 7.16895 -16 16v32c0 8.83105 7.16895 16 16 16h416zM435.17 160c7.07617 0 12.8301 -5.74414 12.8301 -12.8193v-0.0107422v-38.3398v-0.00976562
c0 -7.07617 -5.74414 -12.8203 -12.8193 -12.8203h-0.0107422h-230.34h-0.00976562c-7.07617 0 -12.8203 5.74414 -12.8203 12.8193v0.0107422v38.3398v0.00976562c0 7.07617 5.74414 12.8203 12.8193 12.8203h0.0107422h230.34zM435.17 288
c7.07617 0 12.8301 -5.74414 12.8301 -12.8193v-0.0107422v-38.3398v-0.00976562c0 -7.07617 -5.74414 -12.8203 -12.8193 -12.8203h-0.0107422h-230.34h-0.00976562c-7.07617 0 -12.8203 5.74414 -12.8203 12.8193v0.0107422v38.3398v0.00976562
c0 7.07617 5.74414 12.8203 12.8193 12.8203h0.0107422h230.34zM432 416c8.83105 0 16 -7.16895 16 -16v-32c0 -8.83105 -7.16895 -16 -16 -16h-416c-8.83105 0 -16 7.16895 -16 16v32c0 8.83105 7.16895 16 16 16h416z" />
    <glyph glyph-name="indent" unicode="&#xf03c;" horiz-adv-x="448" 
d="M27.3096 84.7002c-9.97949 -10 -27.3096 -3.00977 -27.3096 11.2998v192c0 14.2197 17.2695 21.3398 27.3096 11.3203l96 -96c2.89453 -2.89648 4.68555 -6.89941 4.68555 -11.3125s-1.79102 -8.41211 -4.68555 -11.3076zM432 32c8.83105 0 16 -7.16895 16 -16v-32
c0 -8.83105 -7.16895 -16 -16 -16h-416c-8.83105 0 -16 7.16895 -16 16v32c0 8.83105 7.16895 16 16 16h416zM435.17 160c7.07617 0 12.8301 -5.74414 12.8301 -12.8193v-0.0107422v-38.3398v-0.00976562c0 -7.07617 -5.74414 -12.8203 -12.8193 -12.8203h-0.0107422
h-230.34h-0.00976562c-7.07617 0 -12.8203 5.74414 -12.8203 12.8193v0.0107422v38.3398v0.00976562c0 7.07617 5.74414 12.8203 12.8193 12.8203h0.0107422h230.34zM435.17 288c7.07617 0 12.8301 -5.74414 12.8301 -12.8193v-0.0107422v-38.3398v-0.00976562
c0 -7.07617 -5.74414 -12.8203 -12.8193 -12.8203h-0.0107422h-230.34h-0.00976562c-7.07617 0 -12.8203 5.74414 -12.8203 12.8193v0.0107422v38.3398v0.00976562c0 7.07617 5.74414 12.8203 12.8193 12.8203h0.0107422h230.34zM432 416c8.83105 0 16 -7.16895 16 -16v-32
c0 -8.83105 -7.16895 -16 -16 -16h-416c-8.83105 0 -16 7.16895 -16 16v32c0 8.83105 7.16895 16 16 16h416z" />
    <glyph glyph-name="video" unicode="&#xf03d;" horiz-adv-x="576" 
d="M336.2 384c26.3994 0 47.7998 -21.4004 47.7998 -47.7998v-288.4c0 -26.3994 -21.4004 -47.7998 -47.7998 -47.7998h-288.4c-26.3994 0 -47.7998 21.4004 -47.7998 47.7998v288.4c0 26.3994 21.4004 47.7998 47.7998 47.7998h288.4zM525.6 346.3
c21.3008 14.6006 50.4004 -0.399414 50.4004 -25.7998v-256.9c0 -25.5 -29.2002 -40.3994 -50.4004 -25.7998l-109.6 75.5v157.4z" />
    <glyph glyph-name="image" unicode="&#xf03e;" 
d="M464 0h-416c-26.5098 0 -48 21.4902 -48 48v288c0 26.5098 21.4902 48 48 48h416c26.5098 0 48 -21.4902 48 -48v-288c0 -26.5098 -21.4902 -48 -48 -48zM112 328c-30.9277 0 -56 -25.0723 -56 -56s25.0723 -56 56 -56s56 25.0723 56 56s-25.0723 56 -56 56zM64 64h384
v112l-87.5146 87.5146c-4.68652 4.68652 -12.2842 4.68652 -16.9717 0l-135.514 -135.515l-55.5146 55.5146c-4.68652 4.68652 -12.2842 4.68652 -16.9717 0l-71.5137 -71.5146v-48z" />
    <glyph glyph-name="map-marker" unicode="&#xf041;" horiz-adv-x="384" 
d="M172.268 -53.6699c-145.298 210.639 -172.268 232.257 -172.268 309.67c0 106.039 85.9609 192 192 192s192 -85.9609 192 -192c0 -77.4131 -26.9697 -99.0312 -172.268 -309.67c-9.53516 -13.7744 -29.9307 -13.7734 -39.4648 0z" />
    <glyph glyph-name="adjust" unicode="&#xf042;" 
d="M8 192c0 136.967 111.034 248 248 248s248 -111.034 248 -248s-111.033 -248 -248 -248s-248 111.034 -248 248zM256 8c101.689 0 184 82.2949 184 184c0 101.689 -82.2949 184 -184 184v-368z" />
    <glyph glyph-name="tint" unicode="&#xf043;" horiz-adv-x="352" 
d="M205.22 425.91c46.9902 -158.48 146.78 -200.07 146.78 -311.82c0 -98.4395 -78.7197 -178.09 -176 -178.09s-176 79.6504 -176 178.09c0 111.19 100.01 154.061 146.78 311.82c9 30.1201 50.5 28.7803 58.4395 0zM176 0c8.83984 0 16 7.16016 16 16s-7.16016 16 -16 16
c-44.1104 0 -80 35.8896 -80 80c0 8.83984 -7.16016 16 -16 16s-16 -7.16016 -16 -16c0 -61.75 50.25 -112 112 -112z" />
    </font>
</defs>
</svg>
